Loading...
Error

Скачать Карточный домик / House of Cards (Сезон 04, серии 01-05 из 13) (Джеймс Фоули, Дэвид Финчер, Карл Франклин) [2016, драма, WEBRip] [720p] [MVO] (Первый канал) торрент без регистрации

 
Статистика раздачи
Размер:  4,19 GB   |    Скачан:  227 раз
Сидов:  1  [  0 KB/s  ]  
 
Автор Сообщение

leon030982

[] 

Карточный домик / House of Cards


Год выпуска: 2016
Страна: США
Жанр: драма
Продолжительность: 00:50:00 - 1 серия
Перевод: Профессиональный (многоголосый, закадровый) [Первый канал]
Субтитры: Русские, английские

Режиссер: Джеймс Фоули / James Foley, Карл Франклин / Carl Franklin, Аллен Култер / Allen Coulter

В ролях: Кевин Спейси (Francis Underwood), Робин Райт (Claire Underwood), Кейт Мара (Zoe Barnes), Кори Столл (Rep. Peter Russo), Майкл Келли (Doug Stamper), Сакина Джэффри (Linda Vasquez), Кристен Коннолли (Christina Gallagher), Ламонт Истер (Underwood Secret Service), Майкл Гилл (President Garrett Walker), Нэйтан Дарроу (Edward Meechum), Сандрин Холт (Gillian Cole), Констанс Зиммер (Janine Skorsky)

Описание: Амбициозный конгрессмен от Демократической партии Фрэнк Андервуд в обмен на обещание сделать его госсекретарём помогает Гаррету Уокеру стать президентом США. Однако после выборов глава администрации президента Линда Васкез сообщает Андервуду, что он не получит должность. Взбешенные предательством Фрэнк и его жена готовы пойти на всё, чтобы отомстить новоиспечённому президенту.



Качество: WEBRip 720p
Формат: MKV
Видео кодек: AVC
Аудио кодек: AC3
Видео: MPEG-4 AVC, ~ 1892 Кбит/с, 1280x640, 25.000 fps
Аудио: 48 kHz, AC3 Dolby Digital, 6 Ch, ~384.00 kbps avg [MVO]
Аудио: 48 kHz, AC3 Dolby Digital, 6 Ch, ~384.00 kbps avg [Eng]



синхронизация звука и субтитров - qqss44
субтитры - Амедиа

Код:

General
Unique ID                                : 206362534612268227446808579616049443708 (0x9B3FFA7DBA1B686495AA26572757B37C)
Complete name                            : E:\INTERNET\House of Cards (Season 04) 720\House.of.Cards.[S04E01].720p.1kanal.[qqss44].mkv
Format                                   : Matroska
Format version                           : Version 2
File size                                : 841 MiB
Duration                                 : 46mn 40s
Overall bit rate                         : 2 518 Kbps
Encoded date                             : UTC 2016-03-04 18:02:46
Writing application                      : mkvmerge v7.9.0 ('Birds') 64bit
Writing library                          : libebml v1.3.1 + libmatroska v1.4.2

Video
ID                                       : 1
Format                                   : AVC
Format/Info                              : Advanced Video Codec
Format profile                           : High@L4.1
Format settings, CABAC                   : Yes
Format settings, ReFrames                : 8 frames
Codec ID                                 : V_MPEG4/ISO/AVC
Duration                                 : 46mn 40s
Bit rate                                 : 1 892 Kbps
Width                                    : 1 280 pixels
Height                                   : 640 pixels
Display aspect ratio                     : 2.000
Frame rate mode                          : Constant
Frame rate                               : 25.000 fps
Original frame rate                      : 23.976 fps
Color space                              : YUV
Chroma subsampling                       : 4:2:0
Bit depth                                : 8 bits
Scan type                                : Progressive
Bits/(Pixel*Frame)                       : 0.092
Stream size                              : 632 MiB (75%)
Writing library                          : x264 core 148 r2665 a01e339
Encoding settings                        : cabac=1 / ref=8 / deblock=1:-3:-3 / analyse=0x3:0x133 / me=umh / subme=10 / psy=1 / psy_rd=1.05:0.00 / mixed_ref=1 / me_range=36 / chroma_me=1 / trellis=2 / 8x8dct=1 / cqm=0 / deadzone=6,6 / fast_pskip=0 / chroma_qp_offset=-2 / threads=12 / lookahead_threads=2 / sliced_threads=0 / nr=0 / decimate=0 / interlaced=0 / bluray_compat=0 / constrained_intra=0 / bframes=9 / b_pyramid=2 / b_adapt=2 / b_bias=0 / direct=3 / weightb=1 / open_gop=0 / weightp=2 / keyint=250 / keyint_min=23 / scenecut=40 / intra_refresh=0 / rc=crf / mbtree=0 / crf=18.0 / qcomp=0.80 / qpmin=0 / qpmax=69 / qpstep=4 / ip_ratio=1.10 / pb_ratio=1.10 / aq=3:0.60
Language                                 : English
Default                                  : Yes
Forced                                   : No

Audio #1
ID                                       : 2
Format                                   : AC-3
Format/Info                              : Audio Coding 3
Mode extension                           : CM (complete main)
Format settings, Endianness              : Big
Codec ID                                 : A_AC3
Duration                                 : 46mn 40s
Bit rate mode                            : Constant
Bit rate                                 : 192 Kbps
Channel(s)                               : 2 channels
Channel positions                        : Front: L R
Sampling rate                            : 48.0 KHz
Compression mode                         : Lossy
Stream size                              : 64.1 MiB (8%)
Language                                 : Russian
Default                                  : Yes
Forced                                   : No

Audio #2
ID                                       : 3
Format                                   : AC-3
Format/Info                              : Audio Coding 3
Mode extension                           : CM (complete main)
Format settings, Endianness              : Big
Codec ID                                 : A_AC3
Duration                                 : 46mn 40s
Bit rate mode                            : Constant
Bit rate                                 : 384 Kbps
Channel(s)                               : 6 channels
Channel positions                        : Front: L C R, Side: L R, LFE
Sampling rate                            : 48.0 KHz
Compression mode                         : Lossy
Stream size                              : 128 MiB (15%)
Language                                 : English
Default                                  : No
Forced                                   : No

Text #1
ID                                       : 4
Format                                   : UTF-8
Codec ID                                 : S_TEXT/UTF8
Codec ID/Info                            : UTF-8 Plain Text
Language                                 : Russian
Default                                  : No
Forced                                   : No

Text #2
ID                                       : 5
Format                                   : UTF-8
Codec ID                                 : S_TEXT/UTF8
Codec ID/Info                            : UTF-8 Plain Text
Language                                 : English
Default                                  : No
Forced                                   : No

Раздача ведётся путём добавления новых серий; при каждом добавлении создаётся новый торрент. Чтобы начать докачку новой серии, пользователям необходимо сделать следующее:
    остановить скачивание,
    удалить старый торрент у себя из клиента (старые серии удалять не надо),
    скачать новый торрент и запустить его у себя в клиенте вместо старого, при этом указать клиенту путь в старую папку куда и должно происходить скачивание новых серий.

Ваш клиент при этом должен произвести хеширование (проверку) старой папки (если не производит сам - помогите ему сделать это), и будет докачивать только те серии которых у вас ещё нет. Старые серии при этом не удаляются, а продолжают раздаваться!
Eсли вы уже удалили старые серии, то предотвратить повторную закачку старых серий можно, отжав галочку в соответствующих местах при запуске нового торрента. По возможности, желательно не удалять старые серии как можно дольше чтобы релизёр не столько продолжал раздавать старые серии, а смог сконцентрироваться на новых.



Скачать Карточный.домик.House.of.Cards.(Сезон.04.серии.01-05.из.13).(Джеймс.Фоули.Дэвид.Финчер.Карл.Франклин).[2016.драма.WEBRip].[720p].[MVO].(Первый.канал).torrent без регистрации
Золото ЗОЛОТАЯ РАЗДАЧА! СКАЧАННОЕ НЕ ЗАСЧИТЫВАЕТСЯ! Золото
Дата: Зарегистрирован   [ Тип: внутренний ] Как тут cкачать?
MAGNET ссылка
MAGNET ссылка


Скачать .torrent

22 KB

Статус: проверено DHT
Скачан: торрент - 227 раз, раздача полностью - 40 раз
Размер: 4,19 GB
Оценка:  - (Голосов: 0)
Поблагодарили: 0
Поделиться ссылкой на эту раздачу с друзьями:
В контактеFacebookОдноклассникиTwitterLivejournalМой МирLiveinternet
 

 
Показать сообщения:    


Вы не можете начинать темы
Вы не можете отвечать на сообщения
Вы не можете редактировать свои сообщения
Вы не можете удалять свои сообщения
Вы не можете голосовать в опросах
Вы не можете прикреплять файлы к сообщениям
Вы можете скачивать файлы