Loading...
Error

Скачать Стюарт Литтл / Stuart Little (Роб Минкофф) [1999, фэнтези, комедия, приключения, семейный, HDRip] [Dub (лицензия)] торрент без регистрации

 
Статистика раздачи
Размер:  744 MB   |    Скачан:  51 раз
Сидов:  1  [  0 KB/s  ]  
 
Автор Сообщение

Marsianka

[] 

Информация о фильме
Название: Стюарт Литтл
Оригинальное название: Stuart Little
Год выхода: 1999
Жанр: фэнтези, комедия, приключения, семейный
Режиссер: Роб Минкофф
В ролях:
Майкл Дж. Фокс, Джина Дэвис, Хью Лори, Джонатан Липники, Натан Лейн, Чазз Пальминтери, Стив Зан, Джим Дуган, Дэвид Алан Грир, Бруно Кёрби
Роли дублировали: Олег Куликович, Лариса Луппиан, Валерий Кухарешин, Игорь Семенов, Сергей Паршин....

О фильме:
Когда Джордж попросил своих родителей усыновить ему маленького братишку, чета Литтл восприняла его просьбу слишком буквально. И в один прекрасный день в их большом доме появился… крошечный мышонок Стюарт, который одет в модный костюмчик и умеет разговаривать. С этого момента начинаются непредсказуемые, веселые, а иногда и опасные приключения Стюарта Литтла. За малышом охотятся все коты в округе, его похищают мошенники, и чтобы вернуться домой, новому члену семьи придется стать настоящим героем.


Страна: Германия, США
Студия: Columbia Pictures
Продолжительность: 01:24:36
Перевод: Профессиональный (полное дублирование)-(лицензия)

Файл
Кодек: XviD
Качество: HDRip
Видео: 656x352 (1.86:1), 23.976 fps, XviD build 73 ~1092 kbps avg, 0.20 bit/pixel
Звук: 48 kHz, MPEG Layer 3, 2 ch, ~128.00 kbps avg
Субтитры: Отсутствуют

Семпл
General
Complete name : D:Изготовление рипаStuart.Little.1999.HDRip.by shkiper.avi
Format : AVI
Format/Info : Audio Video Interleave
File size : 744 MiB
Duration : 1h 24mn
Overall bit rate : 1 230 Kbps
Writing application : VirtualDubMod 1.5.10.3 | www.virtualdub-fr.org || (build 2550/release)
Writing library : VirtualDubMod build 2550/release

Video
ID : 0
Format : MPEG-4 Visual
Format profile : Advanced Simple@L5
Format settings, BVOP : 1
Format settings, QPel : No
Format settings, GMC : No warppoints
Format settings, Matrix : Custom
Codec ID : XVID
Codec ID/Hint : XviD
Duration : 1h 24mn
Bit rate : 1 093 Kbps
Width : 656 pixels
Height : 352 pixels
Display aspect ratio : 1.85:1
Frame rate : 23.976 (23976/1000) fps
Color space : YUV
Chroma subsampling : 4:2:0
Bit depth : 8 bits
Scan type : Progressive
Compression mode : Lossy
Bits/(Pixel*Frame) : 0.197
Stream size : 661 MiB (89%)
Writing library : XviD 73

Audio
ID : 1
Format : MPEG Audio
Format version : Version 1
Format profile : Layer 3
Codec ID : 55
Codec ID/Hint : MP3
Duration : 1h 24mn
Bit rate mode : Constant
Bit rate : 128 Kbps
Channel(s) : 2 channels
Sampling rate : 48.0 KHz
Compression mode : Lossy
Stream size : 77.5 MiB (10%)
Alignment : Aligned on interleaves
Interleave, duration : 42 ms (1.00 video frame)
Interleave, preload duratio : 504 ms
Writing library : LAME3.99r
Encoding settings : -m s -V 4 -q 2 -lowpass 17 -b 128
Релиз от:



Скачать Стюарт.Литтл.Stuart.Little.(Роб.Минкофф).[1999.фэнтези.комедия.приключения.семейный.HDRip].[Dub.(лицензия)].torrent без регистрации
Золото ЗОЛОТАЯ РАЗДАЧА! СКАЧАННОЕ НЕ ЗАСЧИТЫВАЕТСЯ! Золото
Дата: Зарегистрирован   [ Тип: внутренний ] Как тут cкачать?
MAGNET ссылка
MAGNET ссылка


Скачать .torrent

15 KB

Статус: проверено DHT
Скачан: торрент - 51 раз, раздача полностью - 11 раз
Размер: 744 MB
Оценка:  5 (Голосов: 1)
Поблагодарили: 1
Поделиться ссылкой на эту раздачу с друзьями:
В контактеFacebookОдноклассникиTwitterLivejournalМой МирLiveinternet
 

 
Показать сообщения:    


Вы не можете начинать темы
Вы не можете отвечать на сообщения
Вы не можете редактировать свои сообщения
Вы не можете удалять свои сообщения
Вы не можете голосовать в опросах
Вы не можете прикреплять файлы к сообщениям
Вы можете скачивать файлы