Loading...
Error

Скачать Изгои / Outsiders (сезон 01) (Адам Бернштейн, Майкл Трим) [2016, драма, WEB-DL] [720p] [MVO (AlexFilm)]+[Eng] торрент без регистрации

 
Статистика раздачи
Размер:  19,63 GB   |    Скачан:  70 раз
Сидов:  2  [  0 KB/s  ]   Личеров:  1  [  0 KB/s  ]  
 
Автор Сообщение

МихаНЕзатор

[] 

Название: Изгои
Оригинальное название: Outsiders
Год выхода: 2016
Жанр: драма
Режиссер: Адам Бернштейн, Майкл Трим

В ролях: Даниэль Брикман, Кайл Галлнер, Эд Хиви, Джоанна МакГинли, Джексон Фрейзер, Марк Джеффри Миллер, Ребекка Харрис, Лори Клатшер, Дэвид Дэйл МакКью, Джефф Сейч и др.

Описание сериала: В основе сюжета семейство Фарреллов, которые живут в горах. Эта семья не похожа на все остальные, они тяготеют к уединению и стараются не подпускать близко к своему жилищу посторонних людей. Эти места являются таинственными и даже опасными для обычных людей, которые не привыкли к образу жизни Фарреллов, но это обстоятельство только на руку клану, ведь они не хотят, чтобы их жизнь стала достоянием общественности. Время от времени живописность этих мест привлекает богатых людей, которые мечтают владеть этим отдаленным от цивилизованного мира уголком земли. Но Фарреллы уже не единожды доказывали, что с ними шутки плохи. Пока, что им удавалось держать оборону, но будет ли так всегда? Их традиции и законы были придуманы много лет тому назад, до этого момента им удавалось соблюдать все, но теперь жизнь аутсайдеров изменилась, все больше людей пытается проникнуть на их территорию. Защищая свою землю, Фарреллы перейдут черту, за которой кроются самые ужасные поступки, совершаемые когда-либо человеком.



Страна: США
Продолжительность: ~ 01:00:00
Перевод: Профессиональный (многоголосый закадровый) AlexFilm
Субтитры: Отсутствуют

Файл
Формат: MKV
Качество: WEB-DL 720р

Видео: 1280x718 (16:9), 23.976 fps, MPEG-4 AVC ~3900 kbps avg, 0.176 bit/pixel
Аудио RUS: 48 kHz, AC3 Dolby Digital, 3/2 (L,C,R,l,r) + LFE ch, ~384.00 kbps
Аудио ENG: 48 kHz, AC3 Dolby Digital, 3/2 (L,C,R,l,r) + LFE ch, ~384.00 kbps

АНОНСЫ ПОПУЛЯРНЫХ РАЗДАЧ


Торрент обновлён, добавлена 13-я серия!
Формат : Matroska
Версия формата : Version 4 / Version 2
Размер файла : 1,82 Гбайт
Продолжительность : 53 м.
Общий поток : 4825 Кбит/сек
Название фильма : Outsiders 1x01 @ AlexFilm
Дата кодирования : UTC 2016-02-13 17:42:35
Программа кодирования : mkvmerge v7.1.0 ('Good Love') 64bit built on Jul 27 2014 13:06:55
Библиотека кодирования : libebml v1.3.0 + libmatroska v1.4.1
Видео
Идентификатор : 1
Формат : AVC
Формат/Информация : Advanced Video Codec
Профиль формата : High@L3.1
Параметр CABAC формата : Нет
Параметр ReFrames формата : 2 кадра
Идентификатор кодека : V_MPEG4/ISO/AVC
Продолжительность : 53 м.
Битрейт : 3961 Кбит/сек
Ширина : 1280 пикселей
Высота : 718 пикселей
Соотношение сторон : 16:9
Режим частоты кадров : Постоянный
Частота кадров : 23,976 кадра/сек
Цветовое пространство : YUV
Субдискретизация насыщенности : 4:2:0
Битовая глубина : 8 бит
Тип развёртки : Прогрессивная
Бит/(Пиксели*Кадры) : 0.180
Размер потока : 1,49 Гбайт (82%)
Язык : English
Default : Да
Forced : Нет
colour_range : Limited
Основные цвета : BT.709
Характеристики трансфера : BT.709
Коэффициенты матрицы : BT.709
Аудио #1
Идентификатор : 2
Формат : AC-3
Формат/Информация : Audio Coding 3
Расширение режима : CM (complete main)
Параметр Endianness формата : Big
Идентификатор кодека : A_AC3
Продолжительность : 53 м.
Вид битрейта : Постоянный
Битрейт : 384 Кбит/сек
Каналы : 6 каналов
Расположение каналов : Front: L C R, Side: L R, LFE
Частота : 48,0 КГц
Метод сжатия : С потерями
Размер потока : 148 Мбайт (8%)
Заголовок : DD5.1 AlexFilm
Язык : Russian
Default : Да
Forced : Нет
Аудио #2
Идентификатор : 3
Формат : AC-3
Формат/Информация : Audio Coding 3
Расширение режима : CM (complete main)
Параметр Endianness формата : Big
Идентификатор кодека : A_AC3
Продолжительность : 53 м.
Вид битрейта : Постоянный
Битрейт : 384 Кбит/сек
Каналы : 6 каналов
Расположение каналов : Front: L C R, Side: L R, LFE
Частота : 48,0 КГц
Метод сжатия : С потерями
Размер потока : 148 Мбайт (8%)
Заголовок : DD5.1 Original
Язык : English
Default : Нет
Forced : Нет
Внимание! Раздача ведётся путём добавления новых серий; при каждом добавлении создаётся новый торрент. Чтобы начать докачку новой серии, пользователям необходимо сделать следующее:
(1) остановить скачивание,
(2) удалить старый торрент у себя из клиента (старые серии удалять не надо),
(3) скачать новый торрент и запустить его у себя в клиенте вместо старого, при этом указать клиенту путь в старую папку куда и должно происходить скачивание новых серий.

Ваш клиент при этом должен произвести хеширование (проверку) старой папки (если не производит сам - помогите ему сделать это), и будет докачивать только те серии которых у вас ещё нет. Старые серии при этом не удаляются, а продолжают раздаваться!

Eсли вы уже удалили старые серии, то предотвратить повторную закачку старых серий можно, отжав галочку в соответсвующих местах при запуске нового торрента. По возможности, желательно не удалять старые серии как можно дольше чтобы релизёр не столько продолжал раздавать старые серии, а смог сконцентрироваться на новых.



Скачать Изгои.Outsiders.(сезон.01).(Адам.Бернштейн.Майкл.Трим).[2016.драма.WEB-DL].[720p].[MVO.(AlexFilm)]+[Eng].torrent без регистрации
Золото ЗОЛОТАЯ РАЗДАЧА! СКАЧАННОЕ НЕ ЗАСЧИТЫВАЕТСЯ! Золото
Дата: Зарегистрирован   [ Тип: внешний ] Как тут cкачать?
MAGNET ссылка
MAGNET ссылка


Скачать .torrent

51 KB

Статус: проверено DHT
Скачан: торрент - 70 раз, раздача полностью - 28 раз
Размер: 19,63 GB
Оценка:  - (Голосов: 0)
Поблагодарили: 1
Поделиться ссылкой на эту раздачу с друзьями:
В контактеFacebookОдноклассникиTwitterLivejournalМой МирLiveinternet
 

 
Показать сообщения:    


Вы не можете начинать темы
Вы не можете отвечать на сообщения
Вы не можете редактировать свои сообщения
Вы не можете удалять свои сообщения
Вы не можете голосовать в опросах
Вы не можете прикреплять файлы к сообщениям
Вы можете скачивать файлы