Loading...
Error

Скачать Последний дракон / The Last Dragon (Майкл Шульц) [1985, боевик, драма, музыкальный, комедия, BDRip-AVC] [DVO]+[Оригинал]+[Sub] торрент без регистрации

 
Статистика раздачи
Размер:  2,18 GB   |    Скачан:  49 раз
Сидов:  1  [  0 KB/s  ]  
 
Автор Сообщение

Marsianka

[] 

Последний дракон / The Last Dragon (1985) BDRip
Производство: США / Delphi III Productions, Motown Productions
Жанр: боевик, драма, музыкальный, комедия

Режиссер: Майкл Шульц
Актеры: Таймак, Вэнити, Кристофер Мёрни, Джулиус Кэрри, Фэйт Принс, Лео О’Брайэн, Майк Старр, Джим Муди, Глен Итон, Эрни Рейес мл.

Описание:
Молодой афро-американец Брюс Лерой мечтает стать вторым Брюсом Ли. Он отправляется в большой город в надежде найти учителя, который сделает из него копию кумира — короля боевых искусств. Но неожиданно парнишка влюбляется. Да ни в кого-нибудь, а в популярнейшую поп-певицу Лауру Чарлз! Естественно, звезду окружает разная публика. И только Брюс сможет защитить возлюбленную и от назойливых поклонников, и от местной мафии...


Рейтинг MPAA: PG-13 (детям до 13 лет просмотр нежелателен)
Дата мировой премьеры: 22 марта 1985

Релиз от: K.E.N (NNM-CLUB)
Продолжительность: 01:48:17
Качество видео: BDRip

Видео: AVC, 1024x556 (16:9), 23.976 fps, 2 296 Kbps (0.168 bit/pixel)
Перевод: Профессиональный (двухголосый, закадровый)
Язык субтитров: Английский
Вид субтитров: Вшитые, отключаемые
Аудио #1: AC-3, 48.0 KHz, 2 ch, 192 Kbps, CBR (Russian)
Аудио #2: AC-3, 48.0 KHz, 6 ch, 384 Kbps, CBR (оригинал)

Формат : Matroska
Версия формата : Version 2
Размер файла : 2,18 Гбайт
Продолжительность : 1 ч. 48 м.
Общий поток : 2886 Кбит/сек
Дата кодирования : UTC 2016-03-06 13:09:26
Программа кодирования : mkvmerge v5.3.0 ('I could have danced') built on Feb 9 2012 10:38:07
Библиотека кодирования : libebml v1.2.3 + libmatroska v1.3.0
Attachment : Yes

Видео
Идентификатор : 1
Формат : AVC
Формат/Информация : Advanced Video Codec
Профиль формата : High@L4.1
Параметр CABAC формата : Да
Параметр ReFrames формата : 10 кадров
Идентификатор кодека : V_MPEG4/ISO/AVC
Продолжительность : 1 ч. 48 м.
Битрейт : 2296 Кбит/сек
Ширина : 1024 пикселя
Высота : 556 пикселей
Соотношение сторон : 1,85:1
Режим частоты кадров : Постоянный
Частота кадров : 23,976 кадра/сек
Цветовое пространство : YUV
Субдискретизация насыщенности : 4:2:0
Битовая глубина : 8 бит
Тип развёртки : Прогрессивная
Бит/(Пиксели*Кадры) : 0.168
Размер потока : 1,70 Гбайт (78%)
Библиотека кодирования : x264 core 146 r2538 121396c
Настройки программы : cabac=1 / ref=10 / deblock=1:-3:-3 / analyse=0x3:0x133 / me=umh / subme=10 / psy=1 / psy_rd=1.00:0.10 / mixed_ref=1 / me_range=32 / chroma_me=1 / trellis=2 / 8x8dct=1 / cqm=0 / deadzone=21,11 / fast_pskip=0 / chroma_qp_offset=-3 / threads=12 / lookahead_threads=2 / sliced_threads=0 / nr=0 / decimate=0 / interlaced=0 / bluray_compat=0 / constrained_intra=0 / bframes=8 / b_pyramid=2 / b_adapt=2 / b_bias=0 / direct=3 / weightb=1 / open_gop=0 / weightp=2 / keyint=240 / keyint_min=23 / scenecut=40 / intra_refresh=0 / rc=2pass / mbtree=0 / bitrate=2296 / ratetol=1.0 / qcomp=0.60 / qpmin=0 / qpmax=69 / qpstep=4 / cplxblur=20.0 / qblur=0.5 / ip_ratio=1.40 / pb_ratio=1.30 / aq=1:0.90
Default : Да
Forced : Нет

Аудио #1
Идентификатор : 2
Формат : AC-3
Формат/Информация : Audio Coding 3
Расширение режима : CM (complete main)
Параметр Endianness формата : Big
Идентификатор кодека : A_AC3
Продолжительность : 1 ч. 48 м.
Вид битрейта : Постоянный
Битрейт : 192 Кбит/сек
Каналы : 2 канала
Расположение каналов : Front: L R
Частота : 48,0 КГц
Битовая глубина : 16 бит
Метод сжатия : С потерями
Размер потока : 149 Мбайт (7%)
Заголовок : Профессиональный (двухголосый, закадровый)
Язык : Russian
Default : Да
Forced : Нет

Аудио #2
Идентификатор : 3
Формат : AC-3
Формат/Информация : Audio Coding 3
Расширение режима : CM (complete main)
Параметр Endianness формата : Big
Идентификатор кодека : A_AC3
Продолжительность : 1 ч. 48 м.
Вид битрейта : Постоянный
Битрейт : 384 Кбит/сек
Каналы : 6 каналов
Расположение каналов : Front: L C R, Side: L R, LFE
Частота : 48,0 КГц
Битовая глубина : 16 бит
Метод сжатия : С потерями
Размер потока : 298 Мбайт (13%)
Заголовок : оригинал
Язык : Russian
Default : Нет
Forced : Нет

Текст
Идентификатор : 4
Формат : PGS
Режим смешивания : zlib
Идентификатор кодека : S_HDMV/PGS
Идентификатор кодека/Информация : The same subtitle format used on BDs/HD-DVDs
Язык : English
Default : Нет
Forced : Нет

Меню
00:00:00.000 : :Chapter 01
00:06:20.546 : :Chapter 02
00:13:06.035 : :Chapter 03
00:21:50.474 : :Chapter 04
00:26:16.366 : :Chapter 05
00:28:32.127 : :Chapter 06
00:32:54.847 : :Chapter 07
00:39:45.049 : :Chapter 08
00:46:39.713 : :Chapter 09
00:56:43.190 : :Chapter 10
01:02:31.872 : :Chapter 11
01:12:05.821 : :Chapter 12
01:17:11.417 : :Chapter 13
01:23:04.854 : :Chapter 14
01:28:59.207 : :Chapter 15
01:41:31.502 : :Chapter 16



Скачать Последний.дракон.The.Last.Dragon.(Майкл.Шульц).[1985.боевик.драма.музыкальный.комедия.BDRip-AVC].[DVO]+[Оригинал]+[Sub].torrent без регистрации
Золото ЗОЛОТАЯ РАЗДАЧА! СКАЧАННОЕ НЕ ЗАСЧИТЫВАЕТСЯ! Золото
Дата: Зарегистрирован   [ Тип: внутренний ] Как тут cкачать?
MAGNET ссылка
MAGNET ссылка


Скачать .torrent

12 KB

Статус: проверено DHT
Скачан: торрент - 49 раз, раздача полностью - 0 раз
Размер: 2,18 GB
Оценка:  - (Голосов: 0)
Поблагодарили: 1
Поделиться ссылкой на эту раздачу с друзьями:
В контактеFacebookОдноклассникиTwitterLivejournalМой МирLiveinternet
 

 
Показать сообщения:    


Вы не можете начинать темы
Вы не можете отвечать на сообщения
Вы не можете редактировать свои сообщения
Вы не можете удалять свои сообщения
Вы не можете голосовать в опросах
Вы не можете прикреплять файлы к сообщениям
Вы можете скачивать файлы