Loading...
Error

Скачать Совершенное оружие / The Perfect Weapon (Марк ДиСалле) [1991 г., боевик, драма, криминал, BDRip-AVC] [AVO] торрент без регистрации

 
Статистика раздачи
Размер:  2,18 GB   |    Скачан:  43 раза
Сидов:  1  [  0 KB/s  ]  
 
Автор Сообщение

durik

[] 

Совершенное оружие / The Perfect Weapon

Информация о фильме
Название: Совершенное оружие
Оригинальное название: The Perfect Weapon
Год выхода: 1991
Жанр: боевик, драма, криминал
Режиссер: Марк ДиСалле
В ролях: Джефф Спикмэн, Джон Дай, Мако, Джеймс Хонг, Маришка Харгитей, Данте Баско, Бо Старр, Сет Сакаи, Профессор Тору Танака, Клайд Кусацу

О фильме:
Молодого Джеффа отец отдает с школу Кенпо в надежде, что тот научится самодисциплине. Годами позже наставника Джеффа мастера Ким начинает преследовать корейская мафия. Джефф пытается помочь, но наставник погибает от рук неизвестного наемного убийцы. Полный желания отомстить, Джефф начинает кровавую войну с корейской мафией, применяя все свои знания боевых искусств.



Страна: США
Студия: Paramount Pictures
Продолжительность: 01:24:58
Перевод:
1. Авторский (одноголосый, закадровый) Живов
2. Авторский (одноголосый, закадровый) Гаврилов
3. Авторский (одноголосый, закадровый) Дольский

Файл
Кодек: AVC
Качество: BDRip-AVC
Видео: 1024x576, 2898 kbps, 23,976 fps, 0,205 Bits/(Pixel*Frame)
Звук:
1. AC3, 48 kHz, 2 ch, 192 kbps - AVO (Живов)
2. AC3, 48 kHz, 2 ch, 192 kbps - AVO (Гаврилов)
3. AC3, 48 kHz, 2 ch, 192 kbps - AVO (Дольский)
4. AC3, 48 kHz, 2 ch, 192 kbps - Original (ENG)

Украинский многоголосый закадровый - AAC, 48 kHz, 2 ch, 128 kbps

Субтитры: Нет
General
Unique ID : 250936665053414936466643729647918620196 (0xBCC8A4CBF471B343A48517C7969B9E24)
Complete name : E:The.Perfect.Weapon.1991.BDRip-AVC_by_Bathory.mkv
Format : Matroska
Format version : Version 4 / Version 2
File size : 2.18 GiB
Duration : 1h 24mn
Overall bit rate : 3 667 Kbps
Movie name : Perfect.Weapon.1991.1080p.Bluray.AVC.Remux
Encoded date : UTC 2016-03-07 19:00:06
Writing application : mkvmerge v8.8.0 ('Wind at my back') 64bit
Writing library : libebml v1.3.3 + libmatroska v1.4.4
DURATION : 01:24:59.008000000
NUMBER_OF_FRAMES : 159344
NUMBER_OF_BYTES : 122376192
_STATISTICS_WRITING_APP : mkvmerge v8.8.0 ('Wind at my back') 64bit
_STATISTICS_WRITING_DATE_UTC : 2016-03-07 19:00:06
_STATISTICS_TAGS : BPS DURATION NUMBER_OF_FRAMES NUMBER_OF_BYTES

Video
ID : 1
Format : AVC
Format/Info : Advanced Video Codec
Format profile : High@L4.1
Format settings, CABAC : Yes
Format settings, ReFrames : 11 frames
Codec ID : V_MPEG4/ISO/AVC
Duration : 1h 24mn
Bit rate : 2 898 Kbps
Width : 1 024 pixels
Height : 576 pixels
Display aspect ratio : 16:9
Frame rate mode : Constant
Frame rate : 23.976 fps
Color space : YUV
Chroma subsampling : 4:2:0
Bit depth : 8 bits
Scan type : Progressive
Bits/(Pixel*Frame) : 0.205
Stream size : 1.68 GiB (77%)
Writing library : x264 core 148 r2665 a01e339
Encoding settings : cabac=1 / ref=11 / deblock=1:-3:-2 / analyse=0x3:0x133 / me=umh / subme=11 / psy=1 / psy_rd=1.10:0.10 / mixed_ref=1 / me_range=32 / chroma_me=1 / trellis=2 / 8x8dct=1 / cqm=0 / deadzone=21,11 / fast_pskip=0 / chroma_qp_offset=-3 / threads=12 / lookahead_threads=3 / sliced_threads=0 / nr=0 / decimate=0 / interlaced=0 / bluray_compat=0 / constrained_intra=0 / bframes=12 / b_pyramid=2 / b_adapt=2 / b_bias=0 / direct=3 / weightb=1 / open_gop=0 / weightp=2 / keyint=240 / keyint_min=23 / scenecut=0 / intra_refresh=0 / rc_lookahead=60 / rc=2pass / mbtree=1 / bitrate=2898 / ratetol=1.0 / qcomp=0.70 / qpmin=0 / qpmax=69 / qpstep=4 / cplxblur=15.0 / qblur=0.5 / vbv_maxrate=62500 / vbv_bufsize=78125 / nal_hrd=none / filler=0 / ip_ratio=1.40 / aq=2:1.00
Default : Yes
Forced : No

Audio #1
ID : 2
Format : AC-3
Format/Info : Audio Coding 3
Mode extension : CM (complete main)
Format settings, Endianness : Big
Codec ID : A_AC3
Duration : 1h 24mn
Bit rate mode : Constant
Bit rate : 192 Kbps
Channel(s) : 2 channels
Channel positions : Front: L R
Sampling rate : 48.0 KHz
Bit depth : 16 bits
Compression mode : Lossy
Stream size : 117 MiB (5%)
Language : Russian
Default : Yes
Forced : No

Audio #2
ID : 3
Format : AC-3
Format/Info : Audio Coding 3
Mode extension : CM (complete main)
Format settings, Endianness : Big
Codec ID : A_AC3
Duration : 1h 24mn
Bit rate mode : Constant
Bit rate : 192 Kbps
Channel(s) : 2 channels
Channel positions : Front: L R
Sampling rate : 48.0 KHz
Bit depth : 16 bits
Compression mode : Lossy
Stream size : 117 MiB (5%)
Language : Russian
Default : No
Forced : No

Audio #3
ID : 4
Format : AC-3
Format/Info : Audio Coding 3
Mode extension : CM (complete main)
Format settings, Endianness : Big
Codec ID : A_AC3
Duration : 1h 24mn
Bit rate mode : Constant
Bit rate : 192 Kbps
Channel(s) : 2 channels
Channel positions : Front: L R
Sampling rate : 48.0 KHz
Bit depth : 16 bits
Compression mode : Lossy
Stream size : 117 MiB (5%)
Language : Russian
Default : No
Forced : No

Audio #4
ID : 5
Format : AC-3
Format/Info : Audio Coding 3
Mode extension : CM (complete main)
Format settings, Endianness : Big
Codec ID : A_AC3
Duration : 1h 24mn
Bit rate mode : Constant
Bit rate : 192 Kbps
Channel(s) : 2 channels
Channel positions : Front: L R
Sampling rate : 48.0 KHz
Bit depth : 16 bits
Compression mode : Lossy
Stream size : 117 MiB (5%)
Language : English
Default : No
Forced : No

Menu
00:00:00.000 : en:Opening
00:14:28.034 : en:Hero's Return
00:26:57.908 : en:Investigations
00:33:20.624 : en:A Friend's Funeral
00:40:39.562 : en:Wolf in Sheep's Clothing
00:53:50.269 : en:The Chase
01:02:44.511 : en:Forgiveness
01:08:41.367 : en:Takedown
Релиз от:

Автор рипа: Bathory



Скачать Совершенное.оружие.The.Perfect.Weapon.(Марк.ДиСалле).[1991.г.боевик.драма.криминал.BDRip-AVC].[AVO].torrent без регистрации
Золото ЗОЛОТАЯ РАЗДАЧА! СКАЧАННОЕ НЕ ЗАСЧИТЫВАЕТСЯ! Золото
Дата: Зарегистрирован   [ Тип: внутренний ] Как тут cкачать?
MAGNET ссылка
MAGNET ссылка


Скачать .torrent

12 KB

Статус: проверено DHT
Скачан: торрент - 43 раз, раздача полностью - 30 раз
Размер: 2,18 GB
Оценка:  - (Голосов: 0)
Поблагодарили: 3
Поделиться ссылкой на эту раздачу с друзьями:
В контактеFacebookОдноклассникиTwitterLivejournalМой МирLiveinternet
 

 
Показать сообщения:    


Вы не можете начинать темы
Вы не можете отвечать на сообщения
Вы не можете редактировать свои сообщения
Вы не можете удалять свои сообщения
Вы не можете голосовать в опросах
Вы не можете прикреплять файлы к сообщениям
Вы можете скачивать файлы