Loading...
Error

Скачать Если ты обещал... / Wenn einer was versprochen hat (Гюнтер Фридрих) [1976, семейный, комедия, приключения, VHSRip][AVO (Юрий Муравский)] торрент без регистрации

 
Статистика раздачи
Размер:  983 MB   |    Скачан:  45 раз
Сидов:  1  [  0 KB/s  ]  
 
Автор Сообщение

Marsianka

[] 

Информация о фильме
Название: Если ты обещал...
Оригинальное название: Wenn einer was versprochen hat
Год выхода: 1976
Жанр: семейный, комедия, приключения
Режиссер: Гюнтер Фридрих
В ролях: Кай Ортманн, Peter Glöckner, Jens Binneböse, Катрин Хайнце, Биргит Эденхартер, Вольфганг Батке, Труде Брентина, Александр Фридрих, Холм Гертнер, Хенри Хюбхен

О фильме:
Отцу 12-летнего Йенса сообщают, что он будет работать на постройке легендарного в то время нефтепровода "Дружба", и поэтому предстоит долгая разлука с семьёй. Йенс обещает, что он будет себя вести примерно, однако разные приключения за пределами школы приводят к незапланированным последствиям - вся их компания оказывается в полиции. Нужно срочно исправлять положение и выполнять данное обещание... (mitro_fan)



Производство: ГДР / Deutscher Fernsehfunk (DFF), Fernsehen der DDR
Продолжительность: 01:09:00
Перевод: авторский (одноголосый закадровый) [Юрий Муравский]

Файл
Качество: VHSRip
Формат: MKV
Видео: MPEG-4 AVC, 720x544 (4:3), 25.000 fps, 1606 kbps
Аудио #1: русский, MP3 2.0, 44.1 kHz, 192 kbps
Аудио #2: немецкий, AC3 2.0, 48 kHz, 192 kbps
Общее
Уникальный идентификатор : 233814708419417234094664895373354511298 (0xAFE713289A891ADCAC39099EAB90ABC2)
Полное имя : Wenn.Iner.Was.Versprochen.Hat.1976.VHSRip.mkv
Формат : Matroska
Версия формата : Version 4 / Version 2
Размер файла : 983 Мбайт
Продолжительность : 1 ч. 9 м.
Общий поток : 1993 Кбит/сек
Дата кодирования : UTC 2015-10-26 22:02:18
Программа кодирования : mkvmerge v7.9.0 ('Birds') 64bit
Библиотека кодирования : libebml v1.3.1 + libmatroska v1.4.2
DURATION : 01:09:00.095000000
NUMBER_OF_FRAMES : 158488
NUMBER_OF_BYTES : 99362273
_STATISTICS_WRITING_APP : mkvmerge v7.9.0 ('Birds') 64bit
_STATISTICS_WRITING_DATE_UTC : 2015-10-26 22:02:18
_STATISTICS_TAGS : BPS DURATION NUMBER_OF_FRAMES NUMBER_OF_BYTES

Видео
Идентификатор : 1
Формат : AVC
Формат/Информация : Advanced Video Codec
Профиль формата : High@L5.1
Параметр CABAC формата : Да
Параметр ReFrames формата : 4 кадра
Идентификатор кодека : V_MPEG4/ISO/AVC
Продолжительность : 1 ч. 9 м.
Битрейт : 1606 Кбит/сек
Ширина : 720 пикселей
Высота : 544 пикселя
Соотношение сторон : 4:3
Режим частоты кадров : Постоянный
Частота кадров : 25,000 кадров/сек
Цветовое пространство : YUV
Субдискретизация насыщенности : 4:2:0
Битовая глубина : 8 бит
Тип развёртки : Прогрессивная
Бит/(Пиксели*Кадры) : 0.164
Размер потока : 774 Мбайт (79%)
Библиотека кодирования : x264 core 130 r2273 b3065e6
Настройки программы : cabac=1 / ref=3 / deblock=1:-1:-1 / analyse=0x3:0x133 / me=umh / subme=7 / psy=1 / psy_rd=1.00:0.15 / mixed_ref=1 / me_range=16 / chroma_me=1 / trellis=2 / 8x8dct=1 / cqm=0 / deadzone=21,11 / fast_pskip=0 / chroma_qp_offset=-3 / threads=3 / lookahead_threads=1 / sliced_threads=0 / nr=0 / decimate=1 / interlaced=0 / bluray_compat=0 / constrained_intra=0 / bframes=3 / b_pyramid=2 / b_adapt=2 / b_bias=0 / direct=3 / weightb=1 / open_gop=0 / weightp=2 / keyint=250 / keyint_min=25 / scenecut=40 / intra_refresh=0 / rc_lookahead=50 / rc=2pass / mbtree=1 / bitrate=1606 / ratetol=1.0 / qcomp=0.60 / qpmin=0 / qpmax=69 / qpstep=4 / cplxblur=20.0 / qblur=0.5 / ip_ratio=1.40 / aq=1:1.00
Язык : German
Default : Да
Forced : Нет

Аудио #1
Идентификатор : 2
Формат : MPEG Audio
Версия формата : Version 1
Профиль формата : Layer 3
Режим : Joint stereo
Идентификатор кодека : A_MPEG/L3
Идентификатор кодека/Подсказка : MP3
Продолжительность : 1 ч. 9 м.
Вид битрейта : Постоянный
Битрейт : 192 Кбит/сек
Каналы : 2 канала
Частота : 44,1 КГц
Метод сжатия : С потерями
Размер потока : 94,8 Мбайт (10%)
Язык : Russian
Default : Да
Forced : Нет

Аудио #2
Идентификатор : 3
Формат : AC-3
Формат/Информация : Audio Coding 3
Расширение режима : CM (complete main)
Параметр Endianness формата : Big
Идентификатор кодека : A_AC3
Продолжительность : 1 ч. 9 м.
Вид битрейта : Постоянный
Битрейт : 192 Кбит/сек
Каналы : 2 канала
Расположение каналов : Front: L R
Частота : 48,0 КГц
Метод сжатия : С потерями
Размер потока : 94,8 Мбайт (10%)
Язык : German
Default : Нет
Forced : Нет
Перевод: Юрий Муравский
Сведение звука: Артвидео
Организация перевода: Minhers76



Скачать Если.ты.обещал.Wenn.einer.was.versprochen.hat.(Гюнтер.Фридрих).[1976.семейный.комедия.приключения.VHSRip][AVO.(Юрий.Муравский)].torrent без регистрации
Золото ЗОЛОТАЯ РАЗДАЧА! СКАЧАННОЕ НЕ ЗАСЧИТЫВАЕТСЯ! Золото
Дата: Зарегистрирован   [ Тип: внутренний ] Как тут cкачать?
MAGNET ссылка
MAGNET ссылка


Скачать .torrent

20 KB

Статус: проверено DHT
Скачан: торрент - 45 раз, раздача полностью - 2 раз
Размер: 983 MB
Оценка:  - (Голосов: 0)
Поблагодарили: 0
Поделиться ссылкой на эту раздачу с друзьями:
В контактеFacebookОдноклассникиTwitterLivejournalМой МирLiveinternet
 

 
Показать сообщения:    


Вы не можете начинать темы
Вы не можете отвечать на сообщения
Вы не можете редактировать свои сообщения
Вы не можете удалять свои сообщения
Вы не можете голосовать в опросах
Вы не можете прикреплять файлы к сообщениям
Вы можете скачивать файлы