Loading...
Error

Скачать Мальчик с большой чёрной собакой / Der Junge mit dem großen schwarzen Hund (Ханнелор Унтерберг) [1986, семейный, DVDRip] [AVO (Юрий Муравский)] торрент без регистрации

 
Статистика раздачи
Размер:  1,47 GB   |    Скачан:  34 раза
Сидов:  1  [  0 KB/s  ]  
 
Автор Сообщение

Marsianka

[] 

Информация о фильме
Название: Мальчик с большой чёрной собакой
Оригинальное название: Der Junge mit dem großen schwarzen Hund
Год выхода: 1986
Жанр: семейный
Режиссер: Ханнелор Унтерберг
В ролях: Нильс Аншутц, Курт Бёве, Дагмар Манцель, Хорст Химер, Рита Фельдмайер, Сабрина Хаселофф, Михаэль Клобе, Вольфганг Кроне

О фильме:
Десятилетний мальчик подружился с большим бездомным псом ньюфаундлендом и взял его домой. Однако с огромной черной собакой в новом жилом доме много неприятностей. В итоге четвероногого поселили в саду рядом с домом, где мальчик сможет посещать его каждый день.



Производство: ГДР / Deutsche Film (DEFA)
Продолжительность: 01:15:57
Перевод: авторский (одноголосый закадровый) [Юрий Муравский]

Файл
Качество: DVDRip
Формат: AVI
Видео: XviD, 656x384, 25.000 fps, 2379 kbps, 0.378 bit/pixel
Аудио #1: русский, AC3 2.0, 48 kHz, 192 kbps
Аудио #2: немецкий, AC3 2.0, 48 kHz, 192 kbps
Общее
Полное имя : Der.Junge.mit.dem.grossen.schwarzen.Hund.1986.L1.DVDRip.avi
Формат : AVI
Формат/Информация : Audio Video Interleave
Размер файла : 1,47 Гбайт
Продолжительность : 1 ч. 15 м.
Общий поток : 2777 Кбит/сек
Программа кодирования : VirtualDubMod 1.5.10.2 (build 2540/release)
Библиотека кодирования : VirtualDubMod build 2540/release

Видео
Идентификатор : 0
Формат : MPEG-4 Visual
Профиль формата : Advanced Simple@L5
Параметр BVOP формата : 1
Параметр QPel формата : Нет
Параметр GMC формата : Без точки перехода
Параметр матрицы формата : Выборочная
Идентификатор кодека : XVID
Идентификатор кодека/Подсказка : XviD
Продолжительность : 1 ч. 15 м.
Битрейт : 2379 Кбит/сек
Ширина : 656 пикселей
Высота : 384 пикселя
Соотношение сторон : 1,708
Частота кадров : 25,000 кадров/сек
Цветовое пространство : YUV
Субдискретизация насыщенности : 4:2:0
Битовая глубина : 8 бит
Тип развёртки : Прогрессивная
Метод сжатия : С потерями
Бит/(Пиксели*Кадры) : 0.378
Размер потока : 1,26 Гбайт (86%)
Библиотека кодирования : XviD 1.2.0.dev47 (UTC 2006-11-01)

Аудио #1
Идентификатор : 1
Формат : AC-3
Формат/Информация : Audio Coding 3
Расширение режима : CM (complete main)
Параметр Endianness формата : Big
Идентификатор кодека : 2000
Продолжительность : 1 ч. 15 м.
Вид битрейта : Постоянный
Битрейт : 192 Кбит/сек
Каналы : 2 канала
Расположение каналов : Front: L R
Частота : 48,0 КГц
Метод сжатия : С потерями
Размер потока : 104 Мбайт (7%)
Выравнивание : Разделение по промежуткам
Продолжительность промежутка : 40 мс. (1,00 видеокадр)
Время предзагрузки промежутка : 500 мс.
Язык : Deutsch

Аудио #2
Идентификатор : 2
Формат : AC-3
Формат/Информация : Audio Coding 3
Расширение режима : CM (complete main)
Параметр Endianness формата : Big
Идентификатор кодека : 2000
Продолжительность : 1 ч. 15 м.
Вид битрейта : Постоянный
Битрейт : 192 Кбит/сек
Каналы : 2 канала
Расположение каналов : Front: L R
Частота : 48,0 КГц
Метод сжатия : С потерями
Размер потока : 104 Мбайт (7%)
Выравнивание : Разделение по промежуткам
Продолжительность промежутка : 40 мс. (1,00 видеокадр)
Время предзагрузки промежутка : 500 мс.
Исходник: Larifari2010
Рип: vova
Перевод: Юрий Муравский
Организация перевод: Minhers76
Релиз от:



Скачать Мальчик.с.большой.чёрной.собакой.Der.Junge.mit.dem.großen.schwarzen.Hund.(Ханнелор.Унтерберг).[1986.семейный.DVDRip].[AVO.(Юрий.Муравский)].torrent без регистрации
Золото ЗОЛОТАЯ РАЗДАЧА! СКАЧАННОЕ НЕ ЗАСЧИТЫВАЕТСЯ! Золото
Дата: Зарегистрирован   [ Тип: внутренний ] Как тут cкачать?
MAGNET ссылка
MAGNET ссылка


Скачать .torrent

16 KB

Статус: проверено DHT
Скачан: торрент - 34 раз, раздача полностью - 3 раз
Размер: 1,47 GB
Оценка:  - (Голосов: 0)
Поблагодарили: 1
Поделиться ссылкой на эту раздачу с друзьями:
В контактеFacebookОдноклассникиTwitterLivejournalМой МирLiveinternet
 

 
Показать сообщения:    


Вы не можете начинать темы
Вы не можете отвечать на сообщения
Вы не можете редактировать свои сообщения
Вы не можете удалять свои сообщения
Вы не можете голосовать в опросах
Вы не можете прикреплять файлы к сообщениям
Вы можете скачивать файлы