Loading...
Error

Скачать Кое-что о Дэнни / Too Smooth / Hairshirt (Дин Парас / Dean Paras) [1998, мелодрама, комедия, DVDRip-AVC] [DVO] (Екатеринбург Арт) + [Sub] (Eng) + [Orig] (Eng) торрент без регистрации

 
Статистика раздачи
Размер:  1,73 GB   |    Скачан:  37 раз
Сидов:  1  [  0 KB/s  ]  
 
Автор Сообщение

leon030982

[] 

Кое-что о Дэнни / Too Smooth / Hairshirt


Год выпуска: 1998
Страна: США
Жанр: мелодрама, комедия
Продолжительность: 01:28:18
Перевод: Профессиональный (двухголосый, закадровый) [Екатеринбург Арт]
Cубтитры: английские

Режиссер: Дин Парас / Dean Paras

В ролях: Дин Парас, Крис Хоган, Ивэн Гленн, Луиз Девар, Лили Грум, Стефани Сотомайер, Адриана Морера, Кэйси Крецмер, Линди Рэнсом, Лорен С. Вуд


Талантливому молодому актеру Дэнни всегда «везло в любви». Но любовь для него была всего лишь игрой. Обаяние и хорошо подвешенный язык помогали ему успешно штурмовать и карьерную лестницу Голливуда, и женские юбки, оставляя за собой разбитые сердца и реки слез.
Но, познакомившись с ангелоподобной красавицей Кори, Дэнни оказывается в непривычной для себя роли — роли влюбленного. И хотя он клянется вести себя по-новому, ему уже не изжить в себе «комплекс Казановы».
К тому же с ним жаждет посчитаться его бывшая подружка Рене, и вдобавок ко всему судьба преподносит Дэнни новое «тяжелое испытание» в лице неотразимо-сексуальной Дженнифер



Качество видео: DVDRip-AVC
Формат видео: MKV
Видео: 720x478 (16:9) @ 854x478, 23.976 fps, AVC, ~2121 Kbps, 0.257 bits/pixel
Аудио #1: 48.0 KHz, AC3, 2 ch, 192 Kbps - [DVO] [Екатеринбург Арт]
Аудио #2: 48.0 KHz, AC3, 6 ch, 448 Kbps - [ENG] [отдельным файлом]

Цитата:

За оцифровку звуковой дорожки с VHS от "Екатеринбург Арт" спасибо makc365. Синхронизация звука - Dreven.
General
Unique ID : 198073768561312203121296435741973501677 (0x95039EC5E290DD06909CCF9CE23356ED)
Complete name : C:\Too Smooth\Too Smooth.mkv
Format : Matroska
Format version : Version 4 / Version 2
File size : 1.46 GiB
Duration : 1h 28mn
Overall bit rate : 2 360 Kbps
Encoded date : UTC 2016-03-12 16:25:24
Writing application : mkvmerge v8.9.0 ('Father Daughter') 64bit
Writing library : libebml v1.3.3 + libmatroska v1.4.4
DURATION : 01:28:17.920000000
NUMBER_OF_FRAMES : 165560
NUMBER_OF_BYTES : 127150080
_STATISTICS_WRITING_APP : mkvmerge v8.9.0 ('Father Daughter') 64bit
_STATISTICS_WRITING_DATE_UT : 2016-03-12 16:25:24
_STATISTICS_TAGS : BPS DURATION NUMBER_OF_FRAMES NUMBER_OF_BYTES
Video
ID : 1
Format : AVC
Format/Info : Advanced Video Codec
Format profile : High@L3.1
Format settings, CABAC : Yes
Format settings, ReFrames : 9 frames
Codec ID : V_MPEG4/ISO/AVC
Duration : 1h 28mn
Bit rate : 2 121 Kbps
Width : 720 pixels
Height : 478 pixels
Display aspect ratio : 16:9
Frame rate mode : Constant
Frame rate : 23.976 fps
Color space : YUV
Chroma subsampling : 4:2:0
Bit depth : 8 bits
Scan type : Progressive
Bits/(Pixel*Frame) : 0.257
Stream size : 1.31 GiB (90%)
Writing library : x264 core 120
Encoding settings : cabac=1 / ref=9 / deblock=1:-1:-1 / analyse=0x3:0 / me=tesa / subme=11 / psy=1 / psy_rd=1.00:0.10 / mixed_ref=1 / me_range=28 / chroma_me=1 / trellis=2 / 8x8dct=1 / cqm=0 / deadzone=21,11 / fast_pskip=0 / chroma_qp_offset=-4 / threads=12 / sliced_threads=0 / nr=0 / decimate=0 / interlaced=0 / bluray_compat=0 / constrained_intra=0 / bframes=6 / b_pyramid=2 / b_adapt=2 / b_bias=0 / direct=3 / weightb=1 / open_gop=0 / weightp=2 / keyint=230 / keyint_min=24 / scenecut=40 / intra_refresh=0 / rc_lookahead=230 / rc=crf / mbtree=1 / crf=18.5 / qcomp=0.70 / qpmin=3 / qpmax=40 / qpstep=4 / ip_ratio=1.50 / aq=1:0.80
Language : English
Default : Yes
Forced : No
Color range : Limited
Color primaries : BT.601 NTSC
Transfer characteristics : BT.709
Matrix coefficients : BT.601
Audio
ID : 2
Format : AC-3
Format/Info : Audio Coding 3
Mode extension : CM (complete main)
Format settings, Endianness : Big
Codec ID : A_AC3
Duration : 1h 28mn
Bit rate mode : Constant
Bit rate : 192 Kbps
Channel(s) : 2 channels
Channel positions : Front: L R
Sampling rate : 48.0 KHz
Compression mode : Lossy
Stream size : 121 MiB (8%)
Title : Екатеринбург Арт
Language : Russian
Default : Yes
Forced : No
Text
ID : 3
Format : VobSub
Muxing mode : zlib
Codec ID : S_VOBSUB
Codec ID/Info : Picture based subtitle format used on DVDs
Language : English
Default : No
Forced : No



Скачать Кое-что.о.Дэнни.Too.Smooth.Hairshirt.(Дин.Парас.Dean.Paras).[1998.мелодрама.комедия.DVDRip-AVC].[DVO].(Екатеринбург.Арт).+.[Sub].(Eng).+.[Orig].(Eng).torrent без регистрации
Золото ЗОЛОТАЯ РАЗДАЧА! СКАЧАННОЕ НЕ ЗАСЧИТЫВАЕТСЯ! Золото
Дата: Зарегистрирован   [ Тип: внутренний ] Как тут cкачать?
MAGNET ссылка
MAGNET ссылка


Скачать .torrent

18 KB

Статус: проверено DHT
Скачан: торрент - 37 раз, раздача полностью - 0 раз
Размер: 1,73 GB
Оценка:  - (Голосов: 0)
Поблагодарили: 1
Поделиться ссылкой на эту раздачу с друзьями:
В контактеFacebookОдноклассникиTwitterLivejournalМой МирLiveinternet
 

 
Показать сообщения:    


Вы не можете начинать темы
Вы не можете отвечать на сообщения
Вы не можете редактировать свои сообщения
Вы не можете удалять свои сообщения
Вы не можете голосовать в опросах
Вы не можете прикреплять файлы к сообщениям
Вы можете скачивать файлы