Loading...
Error

Скачать Счастливая долина / Happy Valley (сезон 02) (Эрос Лин и др.) [2016, драма, криминал, HDTVRip] [MVO (Victory-Films] торрент без регистрации

 
Статистика раздачи
Размер:  4,06 GB   |    Скачан:  117 раз
Сидов:  7  [  0 KB/s  ]   Личеров:  2  [  0 KB/s  ]  
 
Автор Сообщение

МихаНЕзатор

[] 

Информация о фильме
Название: Счастливая долина
Оригинальное название: Happy Valley
Год выхода: 2016
Жанр: драма, криминал
Режиссер: Эрос Лин, Тим Файвелл, Сэлли Вейнрайт

В ролях: Сара Ланкашир, Стив Пембертон, Джеймс Нортон, Адам Лонг, Джо Армстронг, Джордж Костиган, Шиван Финнеран, Чарли Мерфи, Джилл Бейкер

О фильме: Кэтрин Кэйвуд — сержант полиции Западного Йоркшира. Во время ее дежурства в участок приходит бухгалтер Кевин, чтобы заявить о преступлении. Он очень нервничает и не хочет сообщать детали. Затем выясняется, что когда-то Кевин придумал похитить дочь своего босса и использовать выкуп, чтобы оплатить частную школу для своих детей, и вот теперь местный наркоторговец воплотил фантазию Кевина в жизнь.



Релиз от: Victory-Films

Страна: Великобритания
Студия: British Broadcasting Corporation (BBC), Red Production Company
Продолжительность: ~00:58:00 серия
Перевод: Любительский многоголосый [Victory-Films]

Файл
Кодек: XviD
Качество: HDTVRip
Видео: 720x404, 1 593 Kbps, 25.000 fps fps
Звук: MP3, 192 Kbps, 2 channels

АНОНСЫ ПОПУЛЯРНЫХ РАЗДАЧ


Торрент обновлён, добавлена 6-я серия!
General
Complete name : /home/roma/Відео/Счастливая долина (Happy Valley)/Счастливая долина 2 - 2016 - Victory-Films/Happy.Valley.S02E01.HDTV. - Victory-Films.avi
Format : AVI
Format/Info : Audio Video Interleave
File size : 751 MiB
Duration : 58mn 25s
Overall bit rate : 1 798 Kbps
Writing application : Lavf54.63.104

Video
ID : 0
Format : xvid
Codec ID : xvid
Duration : 58mn 24s
Bit rate : 1 593 Kbps
Width : 720 pixels
Height : 404 pixels
Display aspect ratio : 16:9
Frame rate : 25.000 fps
Scan type : Progressive
Bits/(Pixel*Frame) : 0.219
Stream size : 666 MiB (89%)

Audio
ID : 1
Format : MPEG Audio
Format version : Version 1
Format profile : Layer 3
Mode : Joint stereo
Mode extension : MS Stereo
Codec ID : 55
Codec ID/Hint : MP3
Duration : 58mn 25s
Bit rate mode : Constant
Bit rate : 192 Kbps
Channel(s) : 2 channels
Sampling rate : 48.0 KHz
Compression mode : Lossy
Stream size : 80.2 MiB (11%)
Alignment : Aligned on interleaves
Interleave, duration : 24 ms (0.60 video frame)
Семпл
Когда раздача ведётся путём добавления новых серий, при каждом добавлении создётся новый торрент. Чтобы начать докачку новой серии, пользователям необходимо сделать следующее:
(1) остановить скачивание,
(2) удалить старый торрент у себя из клиента (старые серии удалять не надо),
(3) скачать новый торрент и запустить его у себя в клиенте вместо старого, при этом указать клиенту путь в старую папку, куда и должно происходить скачивание новых серий.
Ваш клиент при этом должен произвести хеширование (проверку) старой папки (если не производит сам - помогите ему сделать это), и будет докачивать только те серии, которых у вас ещё нет. Старые серии при этом не удаляются, а продолжают раздаваться!
Eсли вы уже удалили старые серии, то предотвратить повторную закачку старых серий можно, отжав галочку в соответсвующих местах при запуске нового торрента. По возможности, желательно не удалять старые серии как можно дольше, чтобы релизёр не столько продолжал раздавать старые серии, а смог сконцентрироваться на новых.



Скачать Счастливая.долина.Happy.Valley.(сезон.02).(Эрос.Лин.и.др.).[2016.драма.криминал.HDTVRip].[MVO.(Victory-Films].torrent без регистрации
Золото ЗОЛОТАЯ РАЗДАЧА! СКАЧАННОЕ НЕ ЗАСЧИТЫВАЕТСЯ! Золото
Дата: Зарегистрирован   [ Тип: внешний ] Как тут cкачать?
MAGNET ссылка
MAGNET ссылка


Скачать .torrent

7 KB

Статус: проверено DHT
Скачан: торрент - 117 раз, раздача полностью - 9 раз
Размер: 4,06 GB
Оценка:  - (Голосов: 0)
Поблагодарили: 0
Поделиться ссылкой на эту раздачу с друзьями:
В контактеFacebookОдноклассникиTwitterLivejournalМой МирLiveinternet
 

 
Показать сообщения:    


Вы не можете начинать темы
Вы не можете отвечать на сообщения
Вы не можете редактировать свои сообщения
Вы не можете удалять свои сообщения
Вы не можете голосовать в опросах
Вы не можете прикреплять файлы к сообщениям
Вы можете скачивать файлы