Loading...
Error

Скачать Патруль времени / Timecop (Питер Хайамс) [1994, боевик, фантастика, триллер, HDRip] [MVO] торрент без регистрации

Статистика раздачи
Размер:  1,46 GB   |    Скачан:  58 раз
Сидов:  1  [  0 KB/s  ]  
 
 
 
Автор Сообщение

Marsianka

[] 

Патруль времени / Timecop (1994) HDRip
Производство: Канада, США, Япония / Dark Horse Entertainment, JVC Entertainment, Largo Entertainment, Largo International N.V., Renaissance Pictures, Signature Pictures
Жанр: боевик, фантастика, триллер

Режиссер: Питер Хайамс
Актеры: Жан-Клод Ван Дамм, Миа Сара, Рон Сильвер, Брюс МакГилл, Глория Рубен, Скотт Беллис, Джейсон Шомбинг, Скотт Лоуренс, Кеннет Уэлш, Брент Вулси, Брэд Лори, Шэйн Келли, Ричард Фараси, Стивен Ламберт, Кевин МакНалти, Дж.Дж. Макаро, Ив Камерон, Дэвид Джэкокс, Майк Митчелл, Джейкоб Рапп, Шон О’Бирн

Описание:
Передвижения во времени породили новый тип преступлений. Можно изменять события прошлого, контролировать финансовые рынки и даже уничтожать целые народы. Правительство США создает специальное полицейское подразделение — патруль времени.
Продажный сенатор, рвущийся к президентскому креслу, отправляется в прошлое, чтобы изменить ход истории. Вслед за ним отправляется полицейский Макс Уокер. Его ждет не только смертельная опасность, но и сильнейшее искушение, ведь, попав в прошлое, он может предотвратить смерть любимой жены…


Возраст: 16+ (зрителям, достигшим 16 лет)
Рейтинг MPAA: R (лицам до 17 лет обязательно присутствие взрослого)
Дата мировой премьеры: 16 сентября 1994
Дата премьеры в России: 22 декабря 2005, «West Video»

Релиз от: K.E.N (NNM-CLUB)
Продолжительность: 01:37:55
Качество видео: HDRip
Перевод: Профессиональный (многоголосый, закадровый)
Субтитры: Отсутствуют

Видео: 720x304 (2.37:1), 23.976 fps, XviD build 73 ~1674 kbps, 0.32 bit/pixel
Аудио #1: 48 kHz, AC3 Dolby Digital, 2/0 (L,R) ch, ~224 kbps - Многоголосый СТС
Аудио #2: 48 kHz, AC3 Dolby Digital, 2/0 (L,R) ch, ~224 kbps - Многоголосый ТК Россия/ ТНТ
Формат : AVI
Формат/Информация : Audio Video Interleave
Размер файла : 1,46 Гбайт
Продолжительность : 1 ч. 37 м.
Общий поток : 2138 Кбит/сек
Программа кодирования : VirtualDubModRus 1.5.10.2 (build 2542/release)
Библиотека кодирования : VirtualDubMod build 2542/release

Видео
Идентификатор : 0
Формат : MPEG-4 Visual
Профиль формата : Advanced Simple@L5
Параметр BVOP формата : 1
Параметр QPel формата : Нет
Параметр GMC формата : Без точки перехода
Параметр матрицы формата : Выборочная
Идентификатор кодека : XVID
Идентификатор кодека/Подсказка : XviD
Продолжительность : 1 ч. 37 м.
Битрейт : 1676 Кбит/сек
Ширина : 720 пикселей
Высота : 304 пикселя
Соотношение сторон : 2,35:1
Частота кадров : 23,976 кадра/сек
Цветовое пространство : YUV
Субдискретизация насыщенности : 4:2:0
Битовая глубина : 8 бит
Тип развёртки : Прогрессивная
Метод сжатия : С потерями
Бит/(Пиксели*Кадры) : 0.319
Размер потока : 1,15 Гбайт (78%)
Библиотека кодирования : XviD 73

Аудио #1
Идентификатор : 1
Формат : AC-3
Формат/Информация : Audio Coding 3
Расширение режима : CM (complete main)
Параметр Endianness формата : Big
Идентификатор кодека : 2000
Продолжительность : 1 ч. 37 м.
Вид битрейта : Постоянный
Битрейт : 224 Кбит/сек
Каналы : 2 канала
Расположение каналов : Front: L R
Частота : 48,0 КГц
Битовая глубина : 16 бит
Метод сжатия : С потерями
Размер потока : 157 Мбайт (10%)
Выравнивание : Разделение по промежуткам
Продолжительность промежутка : 42 мс. (1,00 видеокадр)
Время предзагрузки промежутка : 500 мс.
Заголовок : Многоголосый СТС

Аудио #2
Идентификатор : 2
Формат : AC-3
Формат/Информация : Audio Coding 3
Расширение режима : CM (complete main)
Параметр Endianness формата : Big
Идентификатор кодека : 2000
Продолжительность : 1 ч. 37 м.
Вид битрейта : Постоянный
Битрейт : 224 Кбит/сек
Каналы : 2 канала
Расположение каналов : Front: L R
Частота : 48,0 КГц
Битовая глубина : 16 бит
Метод сжатия : С потерями
Размер потока : 157 Мбайт (10%)
Выравнивание : Разделение по промежуткам
Продолжительность промежутка : 42 мс. (1,00 видеокадр)
Время предзагрузки промежутка : 500 мс.
Заголовок : Многоголосый ТК Россия/ ТНТ



Скачать Патруль.времени.Timecop.(Питер.Хайамс).[1994.боевик.фантастика.триллер.HDRip].[MVO].torrent без регистрации
Золото ЗОЛОТАЯ РАЗДАЧА! СКАЧАННОЕ НЕ ЗАСЧИТЫВАЕТСЯ! Золото
Дата: Зарегистрирован   [ Тип: внутренний ] Как тут cкачать?
MAGNET ссылка
MAGNET ссылка


Скачать .torrent

15 KB

Статус: проверено DHT
Скачан: торрент - 58 раз, раздача полностью - 6 раз
Размер: 1,46 GB
Оценка:  5 (Голосов: 1)
Поблагодарили: 1
Поделиться ссылкой на эту раздачу с друзьями:
В контактеFacebookОдноклассникиTwitterLivejournalМой МирLiveinternet
 

 
Показать сообщения:    


Вы не можете начинать темы
Вы не можете отвечать на сообщения
Вы не можете редактировать свои сообщения
Вы не можете удалять свои сообщения
Вы не можете голосовать в опросах
Вы не можете прикреплять файлы к сообщениям
Вы можете скачивать файлы