Loading...
Error

Скачать Машина / La machine (Франсуа Дюпейрон) [1994, триллер, фантастика, DVDRip-AVC] [AVO]x2 торрент без регистрации

 
Статистика раздачи
Размер:  1,45 GB   |    Скачан:  48 раз
Сидов:  1  [  0 KB/s  ]  
 
Автор Сообщение

Marsianka

[] 

Машина / La machine (1994) DVDRip-AVC
Производство: Франция, Германия
Жанр: триллер, фантастика

Режиссер: Франсуа Дюпейрон
Актеры: Жерар Депардьё, Натали Бэй, Дидье Бурдон, Эрван Байно, Клод Берри, Марк Андреони, Кристиан Бюжо

Описание:
Гениальный психиатр Марк Лекро создаёт фантастическую машину, способную переносить разум одного человека в тело другого и решает при помощи своей машины внедриться в мозг одного из пациентов психиатрической клиники. Он выбирает убийцу, страдающего комплексом агрессии к собственной матери и потому ненавидящем всех женщин. Эксперимент по изучению психологии маньяка изнутри оборачивается кровью невинных жертв. Марк меняется телами с маньяком и тем самым невольно выпускает на свободу жестокого убийцу, который, пользуясь его внешностью, готовит новые злодеяния... Экранизация по произведению Рене Беллетто.


Возраст: 18+ (зрителям, достигшим 18 лет. запрещено для детей)
Дата мировой премьеры: 30 ноября 1994

Релиз от: K.E.N (NNM-CLUB)
Продолжительность: 01:31:53
Качество видео: DVDRip-AVC
Перевод: Авторский (одноголосый, закадровый) х2
Субтитры: Отсутствуют

Видео: H.264/AVC, 720x432 (1.667), 25 fps, 1 878 Kbps (0.242 bit/pixel)
Аудио #1: AC-3, 48.0 KHz, 2 ch, 192 Kbps, CBR (Russian) - авторский А.Гаврилов
Аудио #2: AC-3, 48.0 KHz, 2 ch, 192 Kbps, CBR (Russian) - авторский В.Горчаков

Формат : Matroska
Версия формата : Version 2
Размер файла : 1,45 Гбайт
Продолжительность : 1 ч. 31 м.
Общий поток : 2264 Кбит/сек
Дата кодирования : UTC 2016-03-10 19:11:53
Программа кодирования : mkvmerge v5.3.0 ('I could have danced') built on Feb 9 2012 10:38:07
Библиотека кодирования : libebml v1.2.3 + libmatroska v1.3.0
Attachment : Yes

Видео
Идентификатор : 1
Формат : AVC
Формат/Информация : Advanced Video Codec
Профиль формата : High@L4.1
Параметр CABAC формата : Да
Параметр ReFrames формата : 8 кадров
Идентификатор кодека : V_MPEG4/ISO/AVC
Продолжительность : 1 ч. 31 м.
Битрейт : 1878 Кбит/сек
Ширина : 720 пикселей
Высота : 432 пикселя
Соотношение сторон : 1,667
Режим частоты кадров : Постоянный
Частота кадров : 25,000 кадров/сек
Цветовое пространство : YUV
Субдискретизация насыщенности : 4:2:0
Битовая глубина : 8 бит
Тип развёртки : Прогрессивная
Бит/(Пиксели*Кадры) : 0.242
Размер потока : 1,18 Гбайт (81%)
Библиотека кодирования : x264 core 146 r2538 121396c
Настройки программы : cabac=1 / ref=8 / deblock=1:-3:-3 / analyse=0x3:0x133 / me=umh / subme=9 / psy=1 / psy_rd=0.98:0.20 / mixed_ref=1 / me_range=24 / chroma_me=1 / trellis=2 / 8x8dct=1 / cqm=0 / deadzone=21,11 / fast_pskip=0 / chroma_qp_offset=-3 / threads=12 / lookahead_threads=2 / sliced_threads=0 / nr=0 / decimate=1 / interlaced=0 / bluray_compat=0 / constrained_intra=0 / bframes=8 / b_pyramid=2 / b_adapt=2 / b_bias=0 / direct=3 / weightb=1 / open_gop=0 / weightp=2 / keyint=240 / keyint_min=23 / scenecut=40 / intra_refresh=0 / rc=2pass / mbtree=0 / bitrate=1878 / ratetol=1.0 / qcomp=0.60 / qpmin=0 / qpmax=69 / qpstep=4 / cplxblur=20.0 / qblur=0.5 / ip_ratio=1.40 / pb_ratio=1.30 / aq=3:1.00
Default : Да
Forced : Нет

Аудио #1
Идентификатор : 2
Формат : AC-3
Формат/Информация : Audio Coding 3
Расширение режима : CM (complete main)
Параметр Endianness формата : Big
Идентификатор кодека : A_AC3
Продолжительность : 1 ч. 31 м.
Вид битрейта : Постоянный
Битрейт : 192 Кбит/сек
Каналы : 2 канала
Расположение каналов : Front: L R
Частота : 48,0 КГц
Битовая глубина : 16 бит
Метод сжатия : С потерями
Размер потока : 126 Мбайт (8%)
Заголовок : Гаврилов
Язык : Russian
Default : Да
Forced : Нет

Аудио #2
Идентификатор : 3
Формат : AC-3
Формат/Информация : Audio Coding 3
Профиль формата : Dolby Digital
Расширение режима : CM (complete main)
Параметр Endianness формата : Big
Идентификатор кодека : A_AC3
Продолжительность : 1 ч. 31 м.
Вид битрейта : Постоянный
Битрейт : 192 Кбит/сек
Каналы : 2 канала
Расположение каналов : Front: L R
Частота : 48,0 КГц
Битовая глубина : 16 бит
Метод сжатия : С потерями
Размер потока : 126 Мбайт (8%)
Заголовок : Горчаков
Язык : Russian
Default : Нет
Forced : Нет



Скачать Машина.La.machine.(Франсуа.Дюпейрон).[1994.триллер.фантастика.DVDRip-AVC].[AVO]x2.torrent без регистрации
Золото ЗОЛОТАЯ РАЗДАЧА! СКАЧАННОЕ НЕ ЗАСЧИТЫВАЕТСЯ! Золото
Дата: Зарегистрирован   [ Тип: внутренний ] Как тут cкачать?
MAGNET ссылка
MAGNET ссылка


Скачать .torrent

15 KB

Статус: проверено DHT
Скачан: торрент - 48 раз, раздача полностью - 2 раз
Размер: 1,45 GB
Оценка:  - (Голосов: 0)
Поблагодарили: 1
Поделиться ссылкой на эту раздачу с друзьями:
В контактеFacebookОдноклассникиTwitterLivejournalМой МирLiveinternet
 

 
Показать сообщения:    


Вы не можете начинать темы
Вы не можете отвечать на сообщения
Вы не можете редактировать свои сообщения
Вы не можете удалять свои сообщения
Вы не можете голосовать в опросах
Вы не можете прикреплять файлы к сообщениям
Вы можете скачивать файлы