Loading...
Error

Скачать Люди, забытые временем / The People That Time Forgot (Кевин Коннор) [1977, приключения, фэнтези, экранизация, HDTVRip] [DVO] торрент без регистрации

 
Статистика раздачи
Размер:  1,37 GB   |    Скачан:  60 раз
Сидов:  1  [  0 KB/s  ]  
 
Автор Сообщение

Marsianka

[] 

Информация о фильме
Название: Люди, забытые временем
Оригинальное название: The People That Time Forgot
Год выхода: 1977
Жанр: приключения, фэнтези, экранизация
Режиссер: Кевин Коннор
В ролях: Патрик Уэйн, Даг МакКлюр, Сара Дуглас, Дана Гиллеспи, Торли Уолтерс,Шейн Риммер, Тони Бриттон, Джон Халлам, Дэвид Прауз, Милтон Рейд, Киран Шах, Ричард ЛеПарментье, Тони МакХэйл

О фильме:
По роману Эдгара Райса Берроуза "Люди из забытого времени". 1919 год. Закончилась Первая мировая война. Майор британских военно-морских сил Бен Макбрайд организует экспедицию в ледяные антарктические пустоши на поиски своего друга Боуэна Тайлера, который пропал без вести несколько лет назад. Вскоре искатели приключений оказываются в странном мире, населенном первобытными воинами, пещерными людьми, динозаврами и другими доисторическими монстрами. Экспедиция попадает в руки членов жестокого древнего культа...



Страна: Великобритания
Продолжительность: 01:26:44
Перевод: Профессиональный (двухголосый закадровый) НТВ+

Файл
Кодек: AVI
Качество: HDTVRip | P2
Видео: 720x400 (16:9), 25.000 fps, 2053 kbps avg
Звук: AC3 Dolby Digital, 48 kHz, 2/0 (L,R) ch, 192.00 kbps avg

Семпл
General
Complete name : E:The people that time forgot_1977The people that time forgot.1977.HDTVRip.DVO.avi
Format : AVI
Format/Info : Audio Video Interleave
File size : 1.37 GiB
Duration : 1h 26mn
Overall bit rate : 2 255 Kbps
Writing application : VirtualDubModRus 1.5.10.2 (build 2542/release)
Writing library : VirtualDubMod build 2542/release

Video
ID : 0
Format : MPEG-4 Visual
Format profile : Advanced Simple@L5
Format settings, BVOP : 1
Format settings, QPel : No
Format settings, GMC : No warppoints
Format settings, Matrix : Default (MPEG)
Codec ID : XVID
Codec ID/Hint : XviD
Duration : 1h 26mn
Bit rate : 2 053 Kbps
Width : 720 pixels
Height : 400 pixels
Display aspect ratio : 16:9
Frame rate : 25.000 fps
Color space : YUV
Chroma subsampling : 4:2:0
Bit depth : 8 bits
Scan type : Progressive
Compression mode : Lossy
Bits/(Pixel*Frame) : 0.285
Stream size : 1.24 GiB (91%)
Writing library : XviD 73

Audio
ID : 1
Format : AC-3
Format/Info : Audio Coding 3
Mode extension : CM (complete main)
Format settings, Endianness : Big
Codec ID : 2000
Duration : 1h 26mn
Bit rate mode : Constant
Bit rate : 192 Kbps
Channel(s) : 2 channels
Channel positions : Front: L R
Sampling rate : 48.0 KHz
Bit depth : 16 bits
Compression mode : Lossy
Stream size : 119 MiB (9%)
Alignment : Split accross interleaves
Interleave, duration : 40 ms (1.00 video frame)
Interleave, preload duration : 500 ms



Скачать Люди.забытые.временем.The.People.That.Time.Forgot.(Кевин.Коннор).[1977.приключения.фэнтези.экранизация.HDTVRip].[DVO].torrent без регистрации
Золото ЗОЛОТАЯ РАЗДАЧА! СКАЧАННОЕ НЕ ЗАСЧИТЫВАЕТСЯ! Золото
Дата: Зарегистрирован   [ Тип: внутренний ] Как тут cкачать?
MAGNET ссылка
MAGNET ссылка


Скачать .torrent

14 KB

Статус: проверено DHT
Скачан: торрент - 60 раз, раздача полностью - 6 раз
Размер: 1,37 GB
Оценка:  - (Голосов: 0)
Поблагодарили: 1
Поделиться ссылкой на эту раздачу с друзьями:
В контактеFacebookОдноклассникиTwitterLivejournalМой МирLiveinternet
 

 
Показать сообщения:    


Вы не можете начинать темы
Вы не можете отвечать на сообщения
Вы не можете редактировать свои сообщения
Вы не можете удалять свои сообщения
Вы не можете голосовать в опросах
Вы не можете прикреплять файлы к сообщениям
Вы можете скачивать файлы