Loading...
Error

Скачать Любовные грезы / Love Dream (Чарльз Финч) [1988, триллер, ..., DVDRip-AVC] [AVO (Кузнецов Сергей)]+[Sub]x2 торрент без регистрации

 
Статистика раздачи
Размер:  2,69 GB   |    Скачан:  47 раз
Сидов:  1  [  0 KB/s  ]  
 
Автор Сообщение

Marsianka

[] 

Название: Любовные грезы
Оригинальное название: Love Dream

Год выхода: 1988
Страна: Италия
Студия: Gruppo Bema, Reteitalia
Продолжительность: 01:27:52
Жанр: триллер, ...

Режиссер: Чарльз Финч

В ролях: Кристофер Ламберт, Дайан Лэйн, Франческо Куинн, Дж.С. Куинн, Клаудия Охана, Моника Скаттини, Жоакин Д'Альмейда, ...

Перевод: Авторский (одноголосый, закадровый) Кузнецов Сергей

О фильме: Фантасмагорическая история о бывшем рок-певце, который стал обвиняемым в преступлении против собственного брата. На свою удачу музыкант находит волшебную лампу с джином женского пола, которая ему предлагает загадать три желания…



Кодек: x264
Качество: DVDRip-AVC
Видео: 984x576 , 4000 kbps, 25 fps
Аудио #1: AC-3, 2 ch, 192 kbps (Rus) - AVO Кузнецов Сергей на английскую версию
Аудио #2: AC-3, 2 ch, 192 kbps (Ita)
Субтитры: Русские (VobSub на итальянский), Итальянские (VobSub)
За исходник спасибо - p6041

x264 [info]: frame I:676 Avg QP:19.61 size: 71511
x264 [info]: frame P:24620 Avg QP:22.15 size: 38819
x264 [info]: frame B:106505 Avg QP:24.54 size: 15313
x264 [info]: consecutive B-frames: 0.8% 0.8% 5.0% 9.0% 5.9% 74.9% 1.6% 1.5% 0.3% 0.1% 0.1% 0.1% 0.1%

Общее
Уникальный идентификатор : 253782328820876781158567203584988103173 (0xBEECB2DA48A2BED5968823E950634205)
Полное имя : Любовные грезы (Love Dream) 1988 DVDRip.mkv
Формат : Matroska
Версия формата : Version 2
Размер файла : 2,69 Гбайт
Продолжительность : 1 ч. 27 м.
Общий поток : 4387 Кбит/сек
Дата кодирования : UTC 2016-03-13 08:13:42
Программа кодирования : mkvmerge v4.0.0 ('The Stars were mine') сборка от Jun 6 2010 16:18:42
Библиотека кодирования : libebml v1.0.0 + libmatroska v1.0.0

Видео
Идентификатор : 1
Формат : AVC
Формат/Информация : Advanced Video Codec
Профиль формата : High@L4.1
Параметр CABAC формата : Да
Параметр ReFrames формата : 9 кадров
Идентификатор кодека : V_MPEG4/ISO/AVC
Продолжительность : 1 ч. 27 м.
Битрейт : 4000 Кбит/сек
Ширина : 984 пикселя
Высота : 576 пикселей
Соотношение сторон : 1,708
Режим частоты кадров : Постоянный
Частота кадров : 25,000 кадров/сек
Цветовое пространство : YUV
Субдискретизация насыщенности : 4:2:0
Битовая глубина : 8 бит
Тип развёртки : Прогрессивная
Бит/(Пиксели*Кадры) : 0.282
Размер потока : 2,40 Гбайт (89%)
Библиотека кодирования : x264 core 146 r2538 121396c
Настройки программы : cabac=1 / ref=9 / deblock=1:-3:-3 / analyse=0x3:0x133 / me=umh / subme=11 / psy=1 / psy_rd=1.08:0.12 / mixed_ref=1 / me_range=32 / chroma_me=1 / trellis=2 / 8x8dct=1 / cqm=0 / deadzone=21,11 / fast_pskip=0 / chroma_qp_offset=-3 / threads=12 / lookahead_threads=2 / sliced_threads=0 / nr=0 / decimate=0 / interlaced=0 / bluray_compat=0 / constrained_intra=0 / bframes=12 / b_pyramid=2 / b_adapt=2 / b_bias=0 / direct=3 / weightb=1 / open_gop=0 / weightp=2 / keyint=250 / keyint_min=25 / scenecut=40 / intra_refresh=0 / rc=2pass / mbtree=0 / bitrate=4000 / ratetol=1.0 / qcomp=0.60 / qpmin=0 / qpmax=69 / qpstep=4 / cplxblur=20.0 / qblur=0.5 / ip_ratio=1.40 / pb_ratio=1.30 / aq=1:0.90
Язык : Italian
Default : Нет
Forced : Нет

Аудио #1
Идентификатор : 2
Формат : AC-3
Формат/Информация : Audio Coding 3
Расширение режима : CM (complete main)
Параметр Endianness формата : Big
Идентификатор кодека : A_AC3
Продолжительность : 1 ч. 27 м.
Вид битрейта : Постоянный
Битрейт : 192 Кбит/сек
Каналы : 2 канала
Расположение каналов : Front: L R
Частота : 48,0 КГц
Метод сжатия : С потерями
Размер потока : 121 Мбайт (4%)
Заголовок : AVO Кузнецов Сергей
Язык : Russian
Default : Нет
Forced : Нет

Аудио #2
Идентификатор : 3
Формат : AC-3
Формат/Информация : Audio Coding 3
Расширение режима : CM (complete main)
Параметр Endianness формата : Big
Идентификатор кодека : A_AC3
Продолжительность : 1 ч. 27 м.
Вид битрейта : Постоянный
Битрейт : 192 Кбит/сек
Каналы : 2 канала
Расположение каналов : Front: L R
Частота : 48,0 КГц
Метод сжатия : С потерями
Размер потока : 121 Мбайт (4%)
Язык : Italian
Default : Нет
Forced : Нет

Текст #1
Идентификатор : 4
Формат : VobSub
Режим смешивания : zlib
Идентификатор кодека : S_VOBSUB
Идентификатор кодека/Информация : Picture based subtitle format used on DVDs
Язык : Russian
Default : Нет
Forced : Нет

Текст #2
Идентификатор : 5
Формат : VobSub
Режим смешивания : zlib
Идентификатор кодека : S_VOBSUB
Идентификатор кодека/Информация : Picture based subtitle format used on DVDs
Язык : Italian
Default : Нет
Forced : Нет



Скачать Любовные.грезы.Love.Dream.(Чарльз.Финч).[1988.триллер.DVDRip-AVC].[AVO.(Кузнецов.Сергей)]+[Sub]x2.torrent без регистрации
Золото ЗОЛОТАЯ РАЗДАЧА! СКАЧАННОЕ НЕ ЗАСЧИТЫВАЕТСЯ! Золото
Дата: Зарегистрирован   [ Тип: внутренний ] Как тут cкачать?
MAGNET ссылка
MAGNET ссылка


Скачать .torrent

14 KB

Статус: проверено DHT
Скачан: торрент - 47 раз, раздача полностью - 1 раз
Размер: 2,69 GB
Оценка:  - (Голосов: 0)
Поблагодарили: 1
Поделиться ссылкой на эту раздачу с друзьями:
В контактеFacebookОдноклассникиTwitterLivejournalМой МирLiveinternet
 

 
Показать сообщения:    


Вы не можете начинать темы
Вы не можете отвечать на сообщения
Вы не можете редактировать свои сообщения
Вы не можете удалять свои сообщения
Вы не можете голосовать в опросах
Вы не можете прикреплять файлы к сообщениям
Вы можете скачивать файлы