Loading...
Error

Скачать Как избежать наказания за убийство / How to Get Away with Murder (сезон 02) (Билл Д’Элиа, Майкл Оффер) [2015, драма, WEB-DLRip] [MVO (Flux-Team)]+[Eng] торрент без регистрации

 
Статистика раздачи
Размер:  21,49 GB   |    Скачан:  205 раз
Сидов:  1  [  0 KB/s  ]  
 
Автор Сообщение

МихаНЕзатор

[] 

Название: Как избежать наказания за убийство
Оригинальное название: How to Get Away with Murder
Год выхода: 2015
Жанр: триллер, драма, криминал, детектив
Режиссеры: Билл Д’Элиа, Майкл Оффер

В ролях: Виола Дэвис, Чарли Вебер, Карен Кабрера, Билли Браун, Альфред Энок, Джек Фалахи, Кэти Финдлей, Аджа Наоми Кинг и др.

Описание сериала: Официально дело об убийстве Лайлы закрыто, не полностью доказана вина Нейта в убийстве Сэма Киттинга, как неожиданный поворот событий ставит новые вопросы для Эннализ: кто убил Ребекку и что теперь с этим делать?

Страна: США
Продолжительность: ~ 00:22:00
Перевод: Любительский (многоголосый) Flux-Team
Субтитры: Отсутствуют
Реклама: Отсутствует

Релиз группа:

Файл
Формат: MKV
Качество: WEB-DL 720p

Видео: 1280x720, 23.976 fps, x264 ~4000 kbps avg, ~0.180 bit/pixel
Аудио RUS: 48 kHz, AC3, 6 ch, 384.00 kbps avg
Аудио ENG: 48 kHz, AC3, 6 ch, 384.00 kbps avg

АНОНСЫ ПОПУЛЯРНЫХ РАЗДАЧ


Торрент обновлён, добавлена 15-я серия!
Общее
Уникальный идентификатор : 188505592964979957788676212575835650989 (0x8DD0DB4B4A0BD369885B8BB81645FBAD)
Полное имя : D:НБФ19456Flux-TeamHow.to.Get.Away.with.Murder.S02.WEB-DL.720p.Rus.Eng-FluxTeamHow.to.Get.Away.with.Murder.S02E01.WEB-DL.720p.Rus.Eng-FluxTeam.mkv
Формат : Matroska
Версия формата : Version 4 / Version 2
Размер файла : 1,46 Гбайт
Продолжительность : 43 м.
Общий поток : 4852 Кбит/сек
Дата кодирования : UTC 2015-09-28 20:02:43
Программа кодирования : mkvmerge v8.4.0 ('A better way to fly') 32bit
Библиотека кодирования : libebml v1.3.1 + libmatroska v1.4.2
Attachements : cover.jpg
DURATION : 00:42:25.765000000
NUMBER_OF_FRAMES : 728
NUMBER_OF_BYTES : 48513
_STATISTICS_WRITING_APP : mkvmerge v8.4.0 ('A better way to fly') 32bit
_STATISTICS_WRITING_DATE_UTC : 2015-09-28 20:02:43
_STATISTICS_TAGS : BPS DURATION NUMBER_OF_FRAMES NUMBER_OF_BYTES
Видео
Идентификатор : 1
Формат : AVC
Формат/Информация : Advanced Video Codec
Профиль формата : High@L3.1
Параметр CABAC формата : Нет
Параметр ReFrames формата : 2 кадра
Идентификатор кодека : V_MPEG4/ISO/AVC
Продолжительность : 43 м.
Битрейт : 3988 Кбит/сек
Ширина : 1280 пикселей
Высота : 720 пикселей
Соотношение сторон : 16:9
Режим частоты кадров : Постоянный
Частота кадров : 23,976 кадра/сек
Цветовое пространство : YUV
Субдискретизация насыщенности : 4:2:0
Битовая глубина : 8 бит
Тип развёртки : Прогрессивная
Бит/(Пиксели*Кадры) : 0.180
Размер потока : 1,20 Гбайт (82%)
Язык : English
Default : Да
Forced : Нет
Цветовой диапазон : Limited
Основные цвета : BT.709
Характеристики трансфера : BT.709
Коэффициенты матрицы : BT.709
Аудио #1
Идентификатор : 2
Формат : AC-3
Формат/Информация : Audio Coding 3
Расширение режима : CM (complete main)
Параметр Endianness формата : Big
Идентификатор кодека : A_AC3
Продолжительность : 43 м.
Вид битрейта : Постоянный
Битрейт : 384 Кбит/сек
Каналы : 6 каналов
Расположение каналов : Front: L C R, Side: L R, LFE
Частота : 48,0 КГц
Битовая глубина : 16 бит
Метод сжатия : С потерями
Размер потока : 118 Мбайт (8%)
Заголовок : MVO [Flux-Team]
Язык : Russian
Default : Да
Forced : Нет
Аудио #2
Идентификатор : 3
Формат : AC-3
Формат/Информация : Audio Coding 3
Расширение режима : CM (complete main)
Параметр Endianness формата : Big
Идентификатор кодека : A_AC3
Продолжительность : 43 м.
Вид битрейта : Постоянный
Битрейт : 384 Кбит/сек
Каналы : 6 каналов
Расположение каналов : Front: L C R, Side: L R, LFE
Частота : 48,0 КГц
Битовая глубина : 16 бит
Метод сжатия : С потерями
Размер потока : 118 Мбайт (8%)
Заголовок : Original
Язык : English
Default : Нет
Forced : Нет
Текст #1
Идентификатор : 4
Формат : UTF-8
Идентификатор кодека : S_TEXT/UTF8
Идентификатор кодека/Информация : UTF-8 Plain Text
Заголовок : Notabenoid
Язык : Russian
Default : Нет
Forced : Нет
Текст #2
Идентификатор : 5
Формат : UTF-8
Идентификатор кодека : S_TEXT/UTF8
Идентификатор кодека/Информация : UTF-8 Plain Text
Язык : English
Default : Нет
Forced : Нет



Скачать Как.избежать.наказания.за.убийство.How.to.Get.Away.with.Murder.(сезон.02).(Билл.Д’Элиа.Майкл.Оффер).[2015.драма.WEB-DLRip].[MVO.(Flux-Team)]+[Eng].torrent без регистрации
Золото ЗОЛОТАЯ РАЗДАЧА! СКАЧАННОЕ НЕ ЗАСЧИТЫВАЕТСЯ! Золото
Дата: Зарегистрирован   [ Тип: внутренний ] Как тут cкачать?
MAGNET ссылка
MAGNET ссылка


Скачать .torrent

56 KB

Статус: проверено DHT
Скачан: торрент - 205 раз, раздача полностью - 16 раз
Размер: 21,49 GB
Оценка:  - (Голосов: 0)
Поблагодарили: 0
Поделиться ссылкой на эту раздачу с друзьями:
В контактеFacebookОдноклассникиTwitterLivejournalМой МирLiveinternet
 

 
Показать сообщения:    


Вы не можете начинать темы
Вы не можете отвечать на сообщения
Вы не можете редактировать свои сообщения
Вы не можете удалять свои сообщения
Вы не можете голосовать в опросах
Вы не можете прикреплять файлы к сообщениям
Вы можете скачивать файлы