Loading...
Error

Скачать Цари и пророки / Of Kings and Prophets (01х01-02 из 13) (Дуан Кларк, Джеффри Начманофф) [2016, драма, WEB-DLRip] [MVO (AMS)] торрент без регистрации

 
Статистика раздачи
Размер:  1,45 GB   |    Скачан:  59 раз
Сидов:  1  [  0 KB/s  ]  
 
Автор Сообщение

МихаНЕзатор

[] 


Страна: США
Жанр: драма
Год выпуска: 2015

Продолжительность: 00:43:08
Перевод: Профессиональный многоголосый (Adiós Muchachos Studio)

Режиссер: Дуан Кларк / Duane Clark, Джеффри Начманофф / Jeffrey Nachmanoff

В ролях: Джеймс Флойд, Мохаммад Бакри, Марк Иванир, Симона Кэссел, Алекс МакГрегор, Мэйси Ричардсон-Селлерс, Оливер Рикс, Джо Ваз, Бретт Лоуренс Уильямс, Рэй Уинстон и др.
Джо Ваз (Amos)
Описание: Библейская драма, рассказывающая о закаленном в боях царе, влиятельном пророке и находчивом молодом пастухе.


Качество: WEB-DLRip | WEB-DL 720p
Контейнер: AVI
Видео: XviD, 704x400 (16:9), 2005 kbps, 23,976 fps, 0,297 bpp
Аудио: AC3 / 5.1 / 48 kHz / 384 kbps / 16 bit
АНОНСЫ ПОПУЛЯРНЫХ РАЗДАЧ


Торрент обновлён, добавлена 2-я серия!
Когда раздача ведётся путём добавления новых серий, при каждом добавлении создётся новый торрент. Чтобы начать докачку новой серии, пользователям необходимо сделать следующее:
(1) остановить скачивание,
(2) удалить старый торрент у себя из клиента (старые серии удалять не надо),
(3) скачать новый торрент и запустить его у себя в клиенте вместо старого, при этом указать клиенту путь в старую папку, куда и должно происходить скачивание новых серий.
Ваш клиент при этом должен произвести хеширование (проверку) старой папки (если не производит сам - помогите ему сделать это), и будет докачивать только те серии, которых у вас ещё нет. Старые серии при этом не удаляются, а продолжают раздаваться!
Eсли вы уже удалили старые серии, то предотвратить повторную закачку старых серий можно, отжав галочку в соответсвующих местах при запуске нового торрента. По возможности, желательно не удалять старые серии как можно дольше, чтобы релизёр не столько продолжал раздавать старые серии, а смог сконцентрироваться на новых.

General
Complete name : D:filmOf.Kings.and.Prophets.S01.WEBDLRip.by.NewTeamOf.Kings.and.Prophets.S01E01.WEBDLRip.by.NewTeam.avi
Format : AVI
Format/Info : Audio Video Interleave
File size : 740 MiB
Duration : 43mn 8s
Overall bit rate : 2 399 Kbps
Writing application : VirtualDubMod 1.5.10.3 | www.virtualdub-fr.org || (build 2550/release)
Writing library : VirtualDubMod build 2550/release

Video
ID : 0
Format : MPEG-4 Visual
Format profile : Advanced Simple@L5
Format settings, BVOP : 1
Format settings, QPel : No
Format settings, GMC : No warppoints
Format settings, Matrix : Custom
Codec ID : XVID
Codec ID/Hint : XviD
Duration : 43mn 8s
Bit rate : 2 005 Kbps
Width : 704 pixels
Height : 400 pixels
Display aspect ratio : 16:9
Frame rate : 23.976 fps
Color space : YUV
Chroma subsampling : 4:2:0
Bit depth : 8 bits
Scan type : Progressive
Compression mode : Lossy
Bits/(Pixel*Frame) : 0.297
Stream size : 619 MiB (84%)
Writing library : XviD 73

Audio
ID : 1
Format : AC-3
Format/Info : Audio Coding 3
Mode extension : CM (complete main)
Codec ID : 2000
Duration : 43mn 8s
Bit rate mode : Constant
Bit rate : 384 Kbps
Channel(s) : 6 channels
Channel positions : Front: L C R, Side: L R, LFE
Sampling rate : 48.0 KHz
Bit depth : 16 bits
Compression mode : Lossy
Stream size : 118 MiB (16%)
Alignment : Split accross interleaves
Interleave, duration : 42 ms (1.00 video frame)
Interleave, preload duration : 500 ms



Скачать Цари.и.пророки.Of.Kings.and.Prophets.(01х01-02.из.13).(Дуан.Кларк.Джеффри.Начманофф).[2016.драма.WEB-DLRip].[MVO.(AMS)].torrent без регистрации
Золото ЗОЛОТАЯ РАЗДАЧА! СКАЧАННОЕ НЕ ЗАСЧИТЫВАЕТСЯ! Золото
Дата: Зарегистрирован   [ Тип: внутренний ] Как тут cкачать?
MAGNET ссылка
MAGNET ссылка


Скачать .torrent

16 KB

Статус: проверено DHT
Скачан: торрент - 59 раз, раздача полностью - 0 раз
Размер: 1,45 GB
Оценка:  - (Голосов: 0)
Поблагодарили: 1
Поделиться ссылкой на эту раздачу с друзьями:
В контактеFacebookОдноклассникиTwitterLivejournalМой МирLiveinternet
 

 
Показать сообщения:    


Вы не можете начинать темы
Вы не можете отвечать на сообщения
Вы не можете редактировать свои сообщения
Вы не можете удалять свои сообщения
Вы не можете голосовать в опросах
Вы не можете прикреплять файлы к сообщениям
Вы можете скачивать файлы