Loading...
Error

Скачать Война и Мир / War and Peace (сезон 01) (Том Харпер) [2016, драма, мелодрама, военный, история, экранизация, BDRip-AVC] [MVO (LostFilm)]+[Eng]+[Sub Rus, Eng] торрент без регистрации

 
Статистика раздачи
Размер:  4,15 GB   |    Скачан:  89 раз
Сидов:  1  [  0 KB/s  ]  
 
Автор Сообщение

МихаНЕзатор

[] 

Информация о фильме
Название: Война и Мир
Оригинальное название: War and Peace
Год выхода: 2016
Жанр: Драма, мелодрама, военный, история, экранизация
Режиссер: Том Харпер

В ролях: Пол Дано, Джеймс Нортон, Лили Джеймс, Эдриен Эдмондсон, Эшлин Лофтус, Грета Скакки, Джек Лауден, Таппенс Мидлтон, Анейрин Барнард, Джесси Бакли, Оливия Росс, Том Бёрк, Джим Бродбент, Каллум Тернер, Ребекка Фронт, Стивен Ри, Хлоя Пирри, Матьё Кассовиц, Мэттью Стэгг, Эмили Тааффе, Томас Арнольд, Джиллиан Андерсон, Рори Кинэн, Брайан Кокс

О фильме: Сериал «Война и Мир» - экранизация классического произведения Льва Толстого. 1805 год, французская армия победоносно шествует по Европе, а Россия только вступила в эту войну. Высший свет империи продолжает жить своей жизнью, хотя и их семьи не оказываются в стороне: молодые представители знати в офицерских чинах отправляются на передовую, чтобы заслужить почёт и проявить себя.Андрей Болконский отвозит беременную супругу к отцу и сестре в деревню и присоединяется к штабу Кутузова. Пьер Безухов – незаконнорожденный сын графа, внезапно ставший полноправным наследником и титула, и богатств. Новый статус превращает угловатого и нелепого юношу в завидного жениха. Война же набирает обороты. Наполеон превосходит противника, нанося сокрушительные поражения в битве за битвой. Пока Петербург и Москва наполняются слухами, императорская армия несёт потери и отступает. Вскоре для ключевых персонажей наступит время кардинальных перемен...



Страна: США, Великобритания
Студия: BBC Cymru Wales, BBC Worldwide, The Weinstein Company LLC
Продолжительность: 6 x ~ 01:00:00
Перевод: Профессиональный (многоголосый, закадровый) - LostFilm

Файл
Формат: MKV
Кодек: H.264
Качество: BDRip
Видео: 720x400 at 25 fps, [email protected]/* */, ~1050 kbps
Звук:
Аудио#1: Русский AAC-HE, 48 kHz, 3/2 (L,C,R,l,r) + LFE ch, 16-bit, ~265 kbps
Аудио#2: Английский AAC-HE, 48 kHz, 3/2 (L,C,R,l,r) + LFE ch, 16-bit, ~265 kbps
Субтитры: Русские, английские

АНОНСЫ ПОПУЛЯРНЫХ РАЗДАЧ


Торрент обновлён, улучшен видеоряд, добавлена 6-я серия!

General
Unique ID : 237428988841197766195391925202360986487 (0xB29F28F101F3F0D1BEB72C57D22BEB77)
Complete name : War.and.Peace.01.2016.BDRip.mkv
Format : Matroska
Format version : Version 4 / Version 2
File size : 684 MiB
Duration : 59mn 23s
Overall bit rate : 1 609 Kbps
Movie name : Война и Мир [01] (2016)
Encoded date : UTC 2016-03-17 14:45:15
Writing application : mkvmerge v8.9.0 ('Father Daughter') 64bit
Writing library : libebml v1.3.3 + libmatroska v1.4.4
Attachements : Cover.jpg

Video
ID : 1
Format : AVC
Format/Info : Advanced Video Codec
Format profile : High@L3.1
Format settings, CABAC : Yes
Format settings, ReFrames : 5 frames
Codec ID : V_MPEG4/ISO/AVC
Duration : 59mn 23s
Bit rate : 1 050 Kbps
Width : 720 pixels
Height : 400 pixels
Display aspect ratio : 16:9
Frame rate mode : Constant
Frame rate : 25.000 fps
Color space : YUV
Chroma subsampling : 4:2:0
Bit depth : 8 bits
Scan type : Progressive
Bits/(Pixel*Frame) : 0.146
Stream size : 446 MiB (65%)
Title : War and Peace [01] (2016)
Writing library : x264 core 148 r2665kMod a01e339
Encoding settings : cabac=1 / ref=6 / deblock=1:0:0 / analyse=0x3:0x133 / me=umh / subme=10 / psy=1 / fade_compensate=0.00 / psy_rd=1.00:0.00 / mixed_ref=1 / me_range=24 / chroma_me=1 / trellis=2 / 8x8dct=1 / cqm=0 / deadzone=21,11 / fast_pskip=1 / chroma_qp_offset=-2 / threads=8 / lookahead_threads=1 / sliced_threads=0 / nr=0 / decimate=1 / interlaced=0 / bluray_compat=1 / constrained_intra=0 / fgo=0 / bframes=3 / b_pyramid=1 / b_adapt=2 / b_bias=0 / direct=3 / weightb=1 / open_gop=0 / weightp=1 / keyint=250 / keyint_min=1 / scenecut=40 / intra_refresh=0 / rc_lookahead=60 / rc=2pass / mbtree=1 / bitrate=1050 / ratetol=1.0 / qcomp=0.60 / qpmin=0 / qpmax=69 / qpstep=4 / cplxblur=20.0 / qblur=0.5 / ip_ratio=1.40 / aq=1:1.00
Language : English
Default : Yes
Forced : No

Audio #1
ID : 2
Format : AAC
Format/Info : Advanced Audio Codec
Format profile : HE-AAC / LC
Codec ID : A_AAC
Duration : 59mn 23s
Bit rate : 282 Kbps
Channel(s) : 6 channels
Channel positions : Front: L C R, Side: L R, LFE
Sampling rate : 48.0 KHz / 24.0 KHz
Frame rate : 23.438 fps (1024 spf)
Compression mode : Lossy
Delay relative to video : 43ms
Stream size : 120 MiB (18%)
Title : MVO LostFilm: AAC-HE 5.1 48kHz@282kbps
Language : Russian
Default : Yes
Forced : No

Audio #2
ID : 3
Format : AAC
Format/Info : Advanced Audio Codec
Format profile : HE-AAC / LC
Codec ID : A_AAC
Duration : 59mn 23s
Bit rate : 274 Kbps
Channel(s) : 6 channels
Channel(s)_Original : 18 channels
Channel positions : Front: 14, Side: L R, LFE= 2
Sampling rate : 48.0 KHz / 24.0 KHz
Frame rate : 23.438 fps (1024 spf)
Compression mode : Lossy
Delay relative to video : 43ms
Stream size : 116 MiB (17%)
Title : Original: AAC-HE 5.1 48kHz@274kbps
Language : English
Default : No
Forced : No

Text #1
ID : 4
Format : UTF-8
Codec ID : S_TEXT/UTF8
Codec ID/Info : UTF-8 Plain Text
Duration : 58mn 51s
Bit rate : 1 bps
Count of elements : 11
Stream size : 672 Bytes (0%)
Title : Forced
Language : Russian
Default : Yes
Forced : Yes

Text #2
ID : 5
Format : UTF-8
Codec ID : S_TEXT/UTF8
Codec ID/Info : UTF-8 Plain Text
Duration : 58mn 49s
Bit rate : 102 bps
Count of elements : 747
Stream size : 44.2 KiB (0%)
Language : Russian
Default : No
Forced : No

Text #3
ID : 6
Format : UTF-8
Codec ID : S_TEXT/UTF8
Codec ID/Info : UTF-8 Plain Text
Duration : 57mn 20s
Bit rate : 63 bps
Count of elements : 793
Stream size : 26.7 KiB (0%)
Language : English
Default : No
Forced : No

Text #4
ID : 7
Format : UTF-8
Codec ID : S_TEXT/UTF8
Codec ID/Info : UTF-8 Plain Text
Duration : 58mn 49s
Bit rate : 64 bps
Count of elements : 851
Stream size : 27.8 KiB (0%)
Title : SDH
Language : English
Default : No
Forced : No

Menu
00:00:00.000 : en:00:00:00
00:09:55.759 : en:00:09:55
00:20:59.160 : en:00:20:59
00:29:41.838 : en:00:29:41
00:39:36.319 : en:00:39:36
00:48:50.719 : en:00:48:50



General
Unique ID : 184780708392000461080879306685481385985 (0x8B03784E3B5D52A49CBD0150021E8001)
Complete name : War.and.Peace.02.2016.BDRip.mkv
Format : Matroska
Format version : Version 4 / Version 2
File size : 662 MiB
Duration : 58mn 46s
Overall bit rate : 1 575 Kbps
Movie name : Война и Мир [02] (2016)
Encoded date : UTC 2016-03-16 02:49:43
Writing application : mkvmerge v8.9.0 ('Father Daughter') 64bit
Writing library : libebml v1.3.3 + libmatroska v1.4.4
Attachements : Cover.jpg

Video
ID : 1
Format : AVC
Format/Info : Advanced Video Codec
Format profile : High@L3.1
Format settings, CABAC : Yes
Format settings, ReFrames : 5 frames
Codec ID : V_MPEG4/ISO/AVC
Duration : 58mn 46s
Bit rate : 1 050 Kbps
Width : 720 pixels
Height : 400 pixels
Display aspect ratio : 16:9
Frame rate mode : Constant
Frame rate : 25.000 fps
Color space : YUV
Chroma subsampling : 4:2:0
Bit depth : 8 bits
Scan type : Progressive
Bits/(Pixel*Frame) : 0.146
Stream size : 441 MiB (67%)
Title : War and Peace [02] (2016)
Writing library : x264 core 148 r2665kMod a01e339
Encoding settings : cabac=1 / ref=6 / deblock=1:0:0 / analyse=0x3:0x133 / me=umh / subme=10 / psy=1 / fade_compensate=0.00 / psy_rd=1.00:0.00 / mixed_ref=1 / me_range=24 / chroma_me=1 / trellis=2 / 8x8dct=1 / cqm=0 / deadzone=21,11 / fast_pskip=1 / chroma_qp_offset=-2 / threads=8 / lookahead_threads=1 / sliced_threads=0 / nr=0 / decimate=1 / interlaced=0 / bluray_compat=1 / constrained_intra=0 / fgo=0 / bframes=3 / b_pyramid=1 / b_adapt=2 / b_bias=0 / direct=3 / weightb=1 / open_gop=0 / weightp=1 / keyint=250 / keyint_min=1 / scenecut=40 / intra_refresh=0 / rc_lookahead=60 / rc=2pass / mbtree=1 / bitrate=1050 / ratetol=1.0 / qcomp=0.60 / qpmin=0 / qpmax=69 / qpstep=4 / cplxblur=20.0 / qblur=0.5 / ip_ratio=1.40 / aq=1:1.00
Language : English
Default : Yes
Forced : No

Audio #1
ID : 2
Format : AAC
Format/Info : Advanced Audio Codec
Format profile : HE-AAC / LC
Codec ID : A_AAC
Duration : 58mn 46s
Bit rate : 265 Kbps
Channel(s) : 6 channels
Channel positions : Front: L C R, Side: L R, LFE
Sampling rate : 48.0 KHz / 24.0 KHz
Frame rate : 23.438 fps (1024 spf)
Compression mode : Lossy
Delay relative to video : 43ms
Stream size : 112 MiB (17%)
Title : MVO LostFilm: AAC-HE 5.1 48kHz@265kbps
Language : Russian
Default : Yes
Forced : No

Audio #2
ID : 3
Format : AAC
Format/Info : Advanced Audio Codec
Format profile : HE-AAC / LC
Codec ID : A_AAC
Duration : 58mn 46s
Bit rate : 257 Kbps
Channel(s) : 6 channels
Channel(s)_Original : 18 channels
Channel positions : Front: 14, Side: L R, LFE= 2
Sampling rate : 48.0 KHz / 24.0 KHz
Frame rate : 23.438 fps (1024 spf)
Compression mode : Lossy
Delay relative to video : 43ms
Stream size : 108 MiB (16%)
Title : Original: AAC-HE 5.1 48kHz@257kbps
Language : English
Default : No
Forced : No

Text #1
ID : 4
Format : UTF-8
Codec ID : S_TEXT/UTF8
Codec ID/Info : UTF-8 Plain Text
Duration : 56mn 51s
Bit rate : 0 bps
Count of elements : 5
Stream size : 193 Bytes (0%)
Title : Forced
Language : Russian
Default : Yes
Forced : Yes

Text #2
ID : 5
Format : UTF-8
Codec ID : S_TEXT/UTF8
Codec ID/Info : UTF-8 Plain Text
Duration : 58mn 11s
Bit rate : 86 bps
Count of elements : 653
Stream size : 36.8 KiB (0%)
Language : Russian
Default : No
Forced : No

Text #3
ID : 6
Format : UTF-8
Codec ID : S_TEXT/UTF8
Codec ID/Info : UTF-8 Plain Text
Duration : 58mn 11s
Bit rate : 56 bps
Count of elements : 728
Stream size : 24.0 KiB (0%)
Language : English
Default : No
Forced : No

Text #4
ID : 7
Format : UTF-8
Codec ID : S_TEXT/UTF8
Codec ID/Info : UTF-8 Plain Text
Duration : 58mn 11s
Bit rate : 58 bps
Count of elements : 780
Stream size : 25.0 KiB (0%)
Title : SDH
Language : English
Default : No
Forced : No

Menu
00:00:00.000 : en:00:00:00
00:09:45.158 : en:00:09:45
00:21:15.720 : en:00:21:15
00:29:31.519 : en:00:29:31
00:40:23.719 : en:00:40:23
00:50:20.559 : en:00:50:20



General
Unique ID : 252936811905656362427054209972049147222 (0xBE49DBA67532C5EAA596ACC92951F556)
Complete name : War.and.Peace.03.2016.BDRip.mkv
Format : Matroska
Format version : Version 4 / Version 2
File size : 683 MiB
Duration : 1h 0mn
Overall bit rate : 1 590 Kbps
Movie name : Война и Мир [03] (2016)
Encoded date : UTC 2016-03-17 14:59:18
Writing application : mkvmerge v8.9.0 ('Father Daughter') 64bit
Writing library : libebml v1.3.3 + libmatroska v1.4.4
Attachements : Cover.jpg

Video
ID : 1
Format : AVC
Format/Info : Advanced Video Codec
Format profile : High@L3.1
Format settings, CABAC : Yes
Format settings, ReFrames : 5 frames
Codec ID : V_MPEG4/ISO/AVC
Duration : 1h 0mn
Bit rate : 1 050 Kbps
Width : 720 pixels
Height : 400 pixels
Display aspect ratio : 16:9
Frame rate mode : Constant
Frame rate : 25.000 fps
Color space : YUV
Chroma subsampling : 4:2:0
Bit depth : 8 bits
Scan type : Progressive
Bits/(Pixel*Frame) : 0.146
Stream size : 451 MiB (66%)
Title : War and Peace [03] (2016)
Writing library : x264 core 148 r2665kMod a01e339
Encoding settings : cabac=1 / ref=6 / deblock=1:0:0 / analyse=0x3:0x133 / me=umh / subme=10 / psy=1 / fade_compensate=0.00 / psy_rd=1.00:0.00 / mixed_ref=1 / me_range=24 / chroma_me=1 / trellis=2 / 8x8dct=1 / cqm=0 / deadzone=21,11 / fast_pskip=1 / chroma_qp_offset=-2 / threads=8 / lookahead_threads=1 / sliced_threads=0 / nr=0 / decimate=1 / interlaced=0 / bluray_compat=1 / constrained_intra=0 / fgo=0 / bframes=3 / b_pyramid=1 / b_adapt=2 / b_bias=0 / direct=3 / weightb=1 / open_gop=0 / weightp=1 / keyint=250 / keyint_min=1 / scenecut=40 / intra_refresh=0 / rc_lookahead=60 / rc=2pass / mbtree=1 / bitrate=1050 / ratetol=1.0 / qcomp=0.60 / qpmin=0 / qpmax=69 / qpstep=4 / cplxblur=20.0 / qblur=0.5 / ip_ratio=1.40 / aq=1:1.00
Language : English
Default : Yes
Forced : No

Audio #1
ID : 2
Format : AAC
Format/Info : Advanced Audio Codec
Format profile : HE-AAC / LC
Codec ID : A_AAC
Duration : 1h 0mn
Bit rate : 274 Kbps
Channel(s) : 6 channels
Channel positions : Front: L C R, Side: L R, LFE
Sampling rate : 48.0 KHz / 24.0 KHz
Frame rate : 23.438 fps (1024 spf)
Compression mode : Lossy
Delay relative to video : 43ms
Stream size : 118 MiB (17%)
Title : MVO LostFilm: AAC-HE 5.1 48kHz@274kbps
Language : Russian
Default : Yes
Forced : No

Audio #2
ID : 3
Format : AAC
Format/Info : Advanced Audio Codec
Format profile : HE-AAC / LC
Codec ID : A_AAC
Duration : 1h 0mn
Bit rate : 265 Kbps
Channel(s) : 6 channels
Channel(s)_Original : 18 channels
Channel positions : Front: 14, Side: L R, LFE= 2
Sampling rate : 48.0 KHz / 24.0 KHz
Frame rate : 23.438 fps (1024 spf)
Compression mode : Lossy
Delay relative to video : 43ms
Stream size : 113 MiB (17%)
Title : Original: AAC-HE 5.1 48kHz@265kbps
Language : English
Default : No
Forced : No

Text #1
ID : 4
Format : UTF-8
Codec ID : S_TEXT/UTF8
Codec ID/Info : UTF-8 Plain Text
Duration : 58mn 42s
Bit rate : 0 bps
Count of elements : 6
Stream size : 235 Bytes (0%)
Title : Forced
Language : Russian
Default : Yes
Forced : Yes

Text #2
ID : 5
Format : UTF-8
Codec ID : S_TEXT/UTF8
Codec ID/Info : UTF-8 Plain Text
Duration : 59mn 29s
Bit rate : 96 bps
Count of elements : 753
Stream size : 42.2 KiB (0%)
Language : Russian
Default : No
Forced : No

Text #3
ID : 6
Format : UTF-8
Codec ID : S_TEXT/UTF8
Codec ID/Info : UTF-8 Plain Text
Duration : 59mn 30s
Bit rate : 62 bps
Count of elements : 830
Stream size : 27.1 KiB (0%)
Language : English
Default : No
Forced : No

Text #4
ID : 7
Format : UTF-8
Codec ID : S_TEXT/UTF8
Codec ID/Info : UTF-8 Plain Text
Duration : 59mn 30s
Bit rate : 66 bps
Count of elements : 903
Stream size : 28.8 KiB (0%)
Title : SDH
Language : English
Default : No
Forced : No

Menu
00:00:00.000 : en:00:00:00
00:11:15.158 : en:00:11:15
00:20:40.960 : en:00:20:40
00:30:54.118 : en:00:30:54
00:41:01.880 : en:00:41:01
00:50:30.118 : en:00:50:30



General
Unique ID : 209317670895488154855951543644177361106 (0x9D791DF5763EF1DF8C6187629EB4E8D2)
Complete name : War.and.Peace.04.2016.BDRip.mkv
Format : Matroska
Format version : Version 4 / Version 2
File size : 669 MiB
Duration : 1h 0mn
Overall bit rate : 1 557 Kbps
Movie name : Война и Мир [04] (2016)
Encoded date : UTC 2016-03-17 15:04:58
Writing application : mkvmerge v8.9.0 ('Father Daughter') 64bit
Writing library : libebml v1.3.3 + libmatroska v1.4.4
Attachements : Cover.jpg

Video
ID : 1
Format : AVC
Format/Info : Advanced Video Codec
Format profile : High@L3.1
Format settings, CABAC : Yes
Format settings, ReFrames : 5 frames
Codec ID : V_MPEG4/ISO/AVC
Duration : 1h 0mn
Bit rate : 1 050 Kbps
Width : 720 pixels
Height : 400 pixels
Display aspect ratio : 16:9
Frame rate mode : Constant
Frame rate : 25.000 fps
Color space : YUV
Chroma subsampling : 4:2:0
Bit depth : 8 bits
Scan type : Progressive
Bits/(Pixel*Frame) : 0.146
Stream size : 451 MiB (67%)
Title : War and Peace [04] (2016)
Writing library : x264 core 148 r2665kMod a01e339
Encoding settings : cabac=1 / ref=6 / deblock=1:0:0 / analyse=0x3:0x133 / me=umh / subme=10 / psy=1 / fade_compensate=0.00 / psy_rd=1.00:0.00 / mixed_ref=1 / me_range=24 / chroma_me=1 / trellis=2 / 8x8dct=1 / cqm=0 / deadzone=21,11 / fast_pskip=1 / chroma_qp_offset=-2 / threads=8 / lookahead_threads=1 / sliced_threads=0 / nr=0 / decimate=1 / interlaced=0 / bluray_compat=1 / constrained_intra=0 / fgo=0 / bframes=3 / b_pyramid=1 / b_adapt=2 / b_bias=0 / direct=3 / weightb=1 / open_gop=0 / weightp=1 / keyint=250 / keyint_min=1 / scenecut=40 / intra_refresh=0 / rc_lookahead=60 / rc=2pass / mbtree=1 / bitrate=1050 / ratetol=1.0 / qcomp=0.60 / qpmin=0 / qpmax=69 / qpstep=4 / cplxblur=20.0 / qblur=0.5 / ip_ratio=1.40 / aq=1:1.00
Language : English
Default : Yes
Forced : No

Audio #1
ID : 2
Format : AAC
Format/Info : Advanced Audio Codec
Format profile : HE-AAC / LC
Codec ID : A_AAC
Duration : 1h 0mn
Bit rate : 265 Kbps
Channel(s) : 6 channels
Channel positions : Front: L C R, Side: L R, LFE
Sampling rate : 48.0 KHz / 24.0 KHz
Frame rate : 23.438 fps (1024 spf)
Compression mode : Lossy
Delay relative to video : 43ms
Stream size : 114 MiB (17%)
Title : MVO LostFilm: AAC-HE 5.1 48kHz@265kbps
Language : Russian
Default : Yes
Forced : No

Audio #2
ID : 3
Format : AAC
Format/Info : Advanced Audio Codec
Format profile : HE-AAC / LC
Codec ID : A_AAC
Duration : 1h 0mn
Bit rate : 239 Kbps
Channel(s) : 6 channels
Channel(s)_Original : 18 channels
Channel positions : Front: 14, Side: L R, LFE= 2
Sampling rate : 48.0 KHz / 24.0 KHz
Frame rate : 23.438 fps (1024 spf)
Compression mode : Lossy
Delay relative to video : 43ms
Stream size : 103 MiB (15%)
Title : Original: AAC-HE 5.1 48kHz@239kbps
Language : English
Default : No
Forced : No

Text #1
ID : 4
Format : UTF-8
Codec ID : S_TEXT/UTF8
Codec ID/Info : UTF-8 Plain Text
Duration : 58mn 35s
Bit rate : 0 bps
Count of elements : 5
Stream size : 187 Bytes (0%)
Title : Forced
Language : Russian
Default : Yes
Forced : Yes

Text #2
ID : 5
Format : UTF-8
Codec ID : S_TEXT/UTF8
Codec ID/Info : UTF-8 Plain Text
Duration : 59mn 28s
Bit rate : 102 bps
Count of elements : 783
Stream size : 44.5 KiB (0%)
Language : Russian
Default : No
Forced : No

Text #3
ID : 6
Format : UTF-8
Codec ID : S_TEXT/UTF8
Codec ID/Info : UTF-8 Plain Text
Duration : 59mn 29s
Bit rate : 62 bps
Count of elements : 773
Stream size : 27.2 KiB (0%)
Language : English
Default : No
Forced : No

Text #4
ID : 7
Format : UTF-8
Codec ID : S_TEXT/UTF8
Codec ID/Info : UTF-8 Plain Text
Duration : 59mn 29s
Bit rate : 65 bps
Count of elements : 843
Stream size : 28.5 KiB (0%)
Title : SDH
Language : English
Default : No
Forced : No

Menu
00:00:00.000 : en:00:00:00
00:09:59.519 : en:00:09:59
00:21:41.278 : en:00:21:41
00:32:01.000 : en:00:32:01
00:40:09.639 : en:00:40:09
00:50:02.319 : en:00:50:02



General
Unique ID : 188779485332271778452427183948249669595 (0x8E059B3AFB61DF758B5B2C974EFB9FDB)
Complete name : War.and.Peace.05.2016.BDRip.mkv
Format : Matroska
Format version : Version 4 / Version 2
File size : 636 MiB
Duration : 58mn 12s
Overall bit rate : 1 527 Kbps
Movie name : Война и Мир [05] (2016)
Encoded date : UTC 2016-03-18 20:07:23
Writing application : mkvmerge v8.9.0 ('Father Daughter') 64bit
Writing library : libebml v1.3.3 + libmatroska v1.4.4
Attachements : Cover.jpg

Video
ID : 1
Format : AVC
Format/Info : Advanced Video Codec
Format profile : High@L3.1
Format settings, CABAC : Yes
Format settings, ReFrames : 5 frames
Codec ID : V_MPEG4/ISO/AVC
Duration : 58mn 11s
Bit rate : 1 050 Kbps
Width : 720 pixels
Height : 400 pixels
Display aspect ratio : 16:9
Frame rate mode : Constant
Frame rate : 25.000 fps
Color space : YUV
Chroma subsampling : 4:2:0
Bit depth : 8 bits
Scan type : Progressive
Bits/(Pixel*Frame) : 0.146
Stream size : 437 MiB (69%)
Title : War and Peace [05] (2016)
Writing library : x264 core 148 r2665kMod a01e339
Encoding settings : cabac=1 / ref=6 / deblock=1:0:0 / analyse=0x3:0x133 / me=umh / subme=10 / psy=1 / fade_compensate=0.00 / psy_rd=1.00:0.00 / mixed_ref=1 / me_range=24 / chroma_me=1 / trellis=2 / 8x8dct=1 / cqm=0 / deadzone=21,11 / fast_pskip=1 / chroma_qp_offset=-2 / threads=8 / lookahead_threads=1 / sliced_threads=0 / nr=0 / decimate=1 / interlaced=0 / bluray_compat=1 / constrained_intra=0 / fgo=0 / bframes=3 / b_pyramid=1 / b_adapt=2 / b_bias=0 / direct=3 / weightb=1 / open_gop=0 / weightp=1 / keyint=250 / keyint_min=1 / scenecut=40 / intra_refresh=0 / rc_lookahead=60 / rc=2pass / mbtree=1 / bitrate=1050 / ratetol=1.0 / qcomp=0.60 / qpmin=0 / qpmax=69 / qpstep=4 / cplxblur=20.0 / qblur=0.5 / ip_ratio=1.40 / aq=1:1.00
Language : English
Default : Yes
Forced : No

Audio #1
ID : 2
Format : AAC
Format/Info : Advanced Audio Codec
Format profile : HE-AAC / LC
Codec ID : A_AAC
Duration : 58mn 12s
Bit rate : 237 Kbps
Channel(s) : 6 channels
Channel positions : Front: L C R, Side: L R, LFE
Sampling rate : 48.0 KHz / 24.0 KHz
Frame rate : 23.438 fps (1024 spf)
Compression mode : Lossy
Delay relative to video : 43ms
Stream size : 98.8 MiB (16%)
Title : MVO LostFilm: AAC-HE 5.1 48kHz@237kbps
Language : Russian
Default : Yes
Forced : No

Audio #2
ID : 3
Format : AAC
Format/Info : Advanced Audio Codec
Format profile : HE-AAC / LC
Codec ID : A_AAC
Duration : 58mn 12s
Bit rate : 236 Kbps
Channel(s) : 6 channels
Channel(s)_Original : 18 channels
Channel positions : Front: 14, Side: L R, LFE= 2
Sampling rate : 48.0 KHz / 24.0 KHz
Frame rate : 23.438 fps (1024 spf)
Compression mode : Lossy
Delay relative to video : 43ms
Stream size : 98.2 MiB (15%)
Title : Original: AAC-HE 5.1 48kHz@236kbps
Language : English
Default : No
Forced : No

Text #1
ID : 4
Format : UTF-8
Codec ID : S_TEXT/UTF8
Codec ID/Info : UTF-8 Plain Text
Duration : 56mn 25s
Bit rate : 0 bps
Count of elements : 3
Stream size : 126 Bytes (0%)
Title : Forced
Language : Russian
Default : Yes
Forced : Yes

Text #2
ID : 5
Format : UTF-8
Codec ID : S_TEXT/UTF8
Codec ID/Info : UTF-8 Plain Text
Duration : 57mn 41s
Bit rate : 81 bps
Count of elements : 707
Stream size : 34.3 KiB (0%)
Language : Russian
Default : No
Forced : No

Text #3
ID : 6
Format : UTF-8
Codec ID : S_TEXT/UTF8
Codec ID/Info : UTF-8 Plain Text
Duration : 57mn 39s
Bit rate : 57 bps
Count of elements : 697
Stream size : 24.1 KiB (0%)
Language : English
Default : No
Forced : No

Text #4
ID : 7
Format : UTF-8
Codec ID : S_TEXT/UTF8
Codec ID/Info : UTF-8 Plain Text
Duration : 57mn 39s
Bit rate : 60 bps
Count of elements : 764
Stream size : 25.5 KiB (0%)
Title : SDH
Language : English
Default : No
Forced : No

Menu
00:00:00.000 : en:00:00:00.000
00:10:42.080 : en:00:10:42.080
00:20:53.880 : en:00:20:53.880
00:29:55.600 : en:00:29:55.600
00:39:57.800 : en:00:39:57.800
00:49:12.320 : en:00:49:12.320



General
Unique ID : 189700618235324936873116225612367703204 (0x8EB70296C0F022148A401AFF2BFEACA4)
Complete name : War.and.Peace.06.2016.BDRip.mkv
Format : Matroska
Format version : Version 4 / Version 2
File size : 917 MiB
Duration : 1h 22mn
Overall bit rate : 1 560 Kbps
Movie name : Война и Мир [06] (2016)
Encoded date : UTC 2016-03-18 20:18:56
Writing application : mkvmerge v8.9.0 ('Father Daughter') 64bit
Writing library : libebml v1.3.3 + libmatroska v1.4.4
Attachements : Cover.jpg

Video
ID : 1
Format : AVC
Format/Info : Advanced Video Codec
Format profile : High@L3.1
Format settings, CABAC : Yes
Format settings, ReFrames : 5 frames
Codec ID : V_MPEG4/ISO/AVC
Duration : 1h 22mn
Bit rate : 1 050 Kbps
Width : 720 pixels
Height : 400 pixels
Display aspect ratio : 16:9
Frame rate mode : Constant
Frame rate : 25.000 fps
Color space : YUV
Chroma subsampling : 4:2:0
Bit depth : 8 bits
Scan type : Progressive
Bits/(Pixel*Frame) : 0.146
Stream size : 617 MiB (67%)
Title : War and Peace [06] (2016)
Writing library : x264 core 148 r2665kMod a01e339
Encoding settings : cabac=1 / ref=6 / deblock=1:0:0 / analyse=0x3:0x133 / me=umh / subme=10 / psy=1 / fade_compensate=0.00 / psy_rd=1.00:0.00 / mixed_ref=1 / me_range=24 / chroma_me=1 / trellis=2 / 8x8dct=1 / cqm=0 / deadzone=21,11 / fast_pskip=1 / chroma_qp_offset=-2 / threads=8 / lookahead_threads=1 / sliced_threads=0 / nr=0 / decimate=1 / interlaced=0 / bluray_compat=1 / constrained_intra=0 / fgo=0 / bframes=3 / b_pyramid=1 / b_adapt=2 / b_bias=0 / direct=3 / weightb=1 / open_gop=0 / weightp=1 / keyint=250 / keyint_min=1 / scenecut=40 / intra_refresh=0 / rc_lookahead=60 / rc=2pass / mbtree=1 / bitrate=1050 / ratetol=1.0 / qcomp=0.60 / qpmin=0 / qpmax=69 / qpstep=4 / cplxblur=20.0 / qblur=0.5 / ip_ratio=1.40 / aq=1:1.00
Language : English
Default : Yes
Forced : No

Audio #1
ID : 2
Format : AAC
Format/Info : Advanced Audio Codec
Format profile : HE-AAC / LC
Codec ID : A_AAC
Duration : 1h 22mn
Bit rate : 253 Kbps
Channel(s) : 6 channels
Channel positions : Front: L C R, Side: L R, LFE
Sampling rate : 48.0 KHz / 24.0 KHz
Frame rate : 23.438 fps (1024 spf)
Compression mode : Lossy
Delay relative to video : 43ms
Stream size : 148 MiB (16%)
Title : MVO LostFilm: AAC-HE 5.1 48kHz@253kbps
Language : Russian
Default : Yes
Forced : No

Audio #2
ID : 3
Format : AAC
Format/Info : Advanced Audio Codec
Format profile : HE-AAC / LC
Codec ID : A_AAC
Duration : 1h 22mn
Bit rate : 255 Kbps
Channel(s) : 6 channels
Channel(s)_Original : 18 channels
Channel positions : Front: 14, Side: L R, LFE= 2
Sampling rate : 48.0 KHz / 24.0 KHz
Frame rate : 23.438 fps (1024 spf)
Compression mode : Lossy
Delay relative to video : 43ms
Stream size : 150 MiB (16%)
Title : Original: AAC-HE 5.1 48kHz@255kbps
Language : English
Default : No
Forced : No

Text #1
ID : 4
Format : UTF-8
Codec ID : S_TEXT/UTF8
Codec ID/Info : UTF-8 Plain Text
Duration : 1h 19mn
Bit rate : 1 bps
Count of elements : 30
Stream size : 991 Bytes (0%)
Title : Forced
Language : Russian
Default : Yes
Forced : Yes

Text #2
ID : 5
Format : UTF-8
Codec ID : S_TEXT/UTF8
Codec ID/Info : UTF-8 Plain Text
Duration : 1h 20mn
Bit rate : 73 bps
Count of elements : 974
Stream size : 43.3 KiB (0%)
Language : Russian
Default : No
Forced : No

Text #3
ID : 6
Format : UTF-8
Codec ID : S_TEXT/UTF8
Codec ID/Info : UTF-8 Plain Text
Duration : 1h 20mn
Bit rate : 47 bps
Count of elements : 952
Stream size : 27.8 KiB (0%)
Language : English
Default : No
Forced : No

Text #4
ID : 7
Format : UTF-8
Codec ID : S_TEXT/UTF8
Codec ID/Info : UTF-8 Plain Text
Duration : 1h 20mn
Bit rate : 54 bps
Count of elements : 1135
Stream size : 32.1 KiB (0%)
Title : SDH
Language : English
Default : No
Forced : No

Menu
00:00:00.000 : en:00:00:00.000
00:09:02.160 : en:00:09:02.160
00:19:57.840 : en:00:19:57.840
00:28:58.000 : en:00:28:58.000
00:38:46.480 : en:00:38:46.480
00:49:58.720 : en:00:49:58.720
01:00:21.520 : en:01:00:21.520
01:10:54.120 : en:01:10:54.120



Скачать Война.и.Мир.War.and.Peace.(сезон.01).(Том.Харпер).[2016.драма.мелодрама.военный.история.экранизация.BDRip-AVC].[MVO.(LostFilm)]+[Eng]+[Sub.Rus.Eng].torrent без регистрации
Золото ЗОЛОТАЯ РАЗДАЧА! СКАЧАННОЕ НЕ ЗАСЧИТЫВАЕТСЯ! Золото
Дата: Зарегистрирован   [ Тип: внутренний ] Как тут cкачать?
MAGNET ссылка
MAGNET ссылка


Скачать .torrent

22 KB

Статус: проверено DHT
Скачан: торрент - 89 раз, раздача полностью - 131 раз
Размер: 4,15 GB
Оценка:  - (Голосов: 0)
Поблагодарили: 2
Поделиться ссылкой на эту раздачу с друзьями:
В контактеFacebookОдноклассникиTwitterLivejournalМой МирLiveinternet
 

 
Показать сообщения:    


Вы не можете начинать темы
Вы не можете отвечать на сообщения
Вы не можете редактировать свои сообщения
Вы не можете удалять свои сообщения
Вы не можете голосовать в опросах
Вы не можете прикреплять файлы к сообщениям
Вы можете скачивать файлы