Loading...
Error

Скачать Война и Мир / War and Peace (сезон 01) (Том Харпер) [2016, драма, мелодрама, военный, история, экранизация, BDRip] [1080p] [MVO (LostFilm)]+[Eng] торрент без регистрации

 
Статистика раздачи
Размер:  32,43 GB   |    Скачан:  57 раз
Сидов:  1  [  0 KB/s  ]  
 
Автор Сообщение

МихаНЕзатор

[] 

Информация о фильме
Название: Война и Мир
Оригинальное название: War and Peace
Год выхода: 2016
Жанр: Драма, мелодрама, военный, история, экранизация
Режиссер: Том Харпер

В ролях: Пол Дано, Джеймс Нортон, Лили Джеймс, Эдриен Эдмондсон, Эшлин Лофтус, Грета Скакки, Джек Лауден, Таппенс Мидлтон, Анейрин Барнард, Джесси Бакли, Оливия Росс, Том Бёрк, Джим Бродбент, Каллум Тернер, Ребекка Фронт, Стивен Ри, Хлоя Пирри, Матьё Кассовиц, Мэттью Стэгг, Эмили Тааффе, Томас Арнольд, Джиллиан Андерсон, Рори Кинэн, Брайан Кокс

О фильме: Сериал «Война и Мир» - экранизация классического произведения Льва Толстого. 1805 год, французская армия победоносно шествует по Европе, а Россия только вступила в эту войну. Высший свет империи продолжает жить своей жизнью, хотя и их семьи не оказываются в стороне: молодые представители знати в офицерских чинах отправляются на передовую, чтобы заслужить почёт и проявить себя.Андрей Болконский отвозит беременную супругу к отцу и сестре в деревню и присоединяется к штабу Кутузова. Пьер Безухов – незаконнорожденный сын графа, внезапно ставший полноправным наследником и титула, и богатств. Новый статус превращает угловатого и нелепого юношу в завидного жениха. Война же набирает обороты. Наполеон превосходит противника, нанося сокрушительные поражения в битве за битвой. Пока Петербург и Москва наполняются слухами, императорская армия несёт потери и отступает. Вскоре для ключевых персонажей наступит время кардинальных перемен...

Релиз от

Страна: США, Великобритания
Студия: BBC Cymru Wales, BBC Worldwide, The Weinstein Company LLC
Продолжительность: 4 x ~ 01:00:00
Перевод: Профессиональный (многоголосый, закадровый) - LostFilm

Файл
Формат: MKV
Кодек: H.264
Качество: BDRip (1080p)
Видео: 1920x1080 at 25 fps, [email protected]/* */, ~8345 kbps
Звук:
Аудио#1: Русский DTS, 48 kHz, 3/2 (L,C,R,l,r) + LFE ch, 16-bit, 1509 kbps
Аудио#2: Русский AC3, 48 kHz, 3/2 (L,C,R,l,r) + LFE ch, 16-bit, 448 kbps
Аудио#3: Английский DTS, 48 kHz, 3/2 (L,C,R,l,r) + LFE ch, 16-bit, 1509 kbps
Аудио#4: Английский AC3, 48 kHz, 3/2 (L,C,R,l,r) + LFE ch, 16-bit, 448 kbps
Субтитры: Русские, английские

АНОНСЫ ПОПУЛЯРНЫХ РАЗДАЧ


Торрент обновлён, добавлена 2-я серия!
Раздача ведется путём добавления новых серий; при каждом добавлении создается новый торрент.
Если Вы скачали неполную версию, чтобы начать докачку недостающих серий, необходимо сделать следующее:

¤ Остановить скачивание.
¤ Удалить старый торрент у себя из клиента (старые серии удалять не надо).
¤ Скачать новый торрент и запустить его у себя в клиенте вместо старого, при этом указать клиенту путь в старую папку куда и должно происходить скачивание новых серий.

Ваш клиент при этом должен произвести хеширование (проверку) старой папки (если не производит сам - помогите ему сделать это), и будет докачивать только те серии которых у вас ещё нет. Старые серии при этом не удаляются, а продолжают раздаваться!

Если вы уже удалили старые серии, то предотвратить повторную закачку старых серий можно, отжав галочку в соответствующих местах при запуске нового торрента. По возможности, желательно не удалять старые серии как можно дольше, чтобы релизер не столько продолжал раздавать старые серии, а смог сконцентрироваться на новых.

General
Unique ID : 207037833666636040239314691093649026306 (0x9BC2094E19A3DB02AB7064F1BE49ED02)
Complete name : War.and.Peace.S01E01.2016.x264.BDRip.1080p.HDLine.mkv
Format : Matroska
Format version : Version 4 / Version 2
File size : 5.09 GiB
Duration : 59mn 23s
Overall bit rate : 12.3 Mbps
Movie name : ВОЙНА И МИР [01-01] (2016) BDRip-1080p HDLINE
Encoded date : UTC 2016-03-13 18:37:42
Writing application : mkvmerge v8.9.0 ('Father Daughter') 64bit
Writing library : libebml v1.3.3 + libmatroska v1.4.4
Attachements : Cover.jpg

Video
ID : 1
Format : AVC
Format/Info : Advanced Video Codec
Format profile : High@L4.1
Format settings, CABAC : Yes
Format settings, ReFrames : 3 frames
Codec ID : V_MPEG4/ISO/AVC
Duration : 59mn 23s
Bit rate : 8 345 Kbps
Width : 1 920 pixels
Height : 1 080 pixels
Display aspect ratio : 16:9
Frame rate mode : Constant
Frame rate : 25.000 fps
Color space : YUV
Chroma subsampling : 4:2:0
Bit depth : 8 bits
Scan type : Progressive
Bits/(Pixel*Frame) : 0.161
Stream size : 3.46 GiB (68%)
Title : War and Peace [S01-E01] (2016)
Writing library : x264 core 148 r2665kMod a01e339
Encoding settings : cabac=1 / ref=4 / deblock=1:0:0 / analyse=0x3:0x133 / me=umh / subme=10 / psy=1 / fade_compensate=0.00 / psy_rd=1.00:0.00 / mixed_ref=1 / me_range=24 / chroma_me=1 / trellis=2 / 8x8dct=1 / cqm=0 / deadzone=21,11 / fast_pskip=1 / chroma_qp_offset=-2 / threads=10 / lookahead_threads=1 / sliced_threads=0 / nr=0 / decimate=1 / interlaced=0 / bluray_compat=1 / constrained_intra=0 / fgo=0 / bframes=3 / b_pyramid=1 / b_adapt=2 / b_bias=0 / direct=3 / weightb=1 / open_gop=0 / weightp=1 / keyint=250 / keyint_min=1 / scenecut=40 / intra_refresh=0 / rc_lookahead=60 / rc=2pass / mbtree=1 / bitrate=8345 / ratetol=1.0 / qcomp=0.60 / qpmin=0 / qpmax=69 / qpstep=4 / cplxblur=20.0 / qblur=0.5 / ip_ratio=1.40 / aq=1:1.00
Language : English
Default : Yes
Forced : No

Audio #1
ID : 2
Format : DTS
Format/Info : Digital Theater Systems
Mode : 16
Format settings, Endianness : Big
Codec ID : A_DTS
Duration : 59mn 23s
Bit rate mode : Constant
Bit rate : 1 509 Kbps
Channel(s) : 6 channels
Channel positions : Front: L C R, Side: L R, LFE
Sampling rate : 48.0 KHz
Frame rate : 93.750 fps (512 spf)
Bit depth : 16 bits
Compression mode : Lossy
Stream size : 641 MiB (12%)
Title : MVO LostFilm: DTS 5.1 48kHz@1509kbps
Language : Russian
Default : Yes
Forced : No

Audio #2
ID : 3
Format : AC-3
Format/Info : Audio Coding 3
Mode extension : CM (complete main)
Format settings, Endianness : Big
Codec ID : A_AC3
Duration : 59mn 23s
Bit rate mode : Constant
Bit rate : 448 Kbps
Channel(s) : 6 channels
Channel positions : Front: L C R, Side: L R, LFE
Sampling rate : 48.0 KHz
Frame rate : 31.250 fps (1536 spf)
Compression mode : Lossy
Stream size : 190 MiB (4%)
Title : MVO LostFilm: AC3 5.1 48kHz@448kbps
Language : Russian
Default : No
Forced : No

Audio #3
ID : 4
Format : DTS
Format/Info : Digital Theater Systems
Mode : 16
Format settings, Endianness : Big
Codec ID : A_DTS
Duration : 59mn 23s
Bit rate mode : Constant
Bit rate : 1 509 Kbps
Channel(s) : 6 channels
Channel positions : Front: L C R, Side: L R, LFE
Sampling rate : 48.0 KHz
Frame rate : 93.750 fps (512 spf)
Bit depth : 16 bits
Compression mode : Lossy
Stream size : 641 MiB (12%)
Title : Original: DTS 5.1 48kHz@1509kbps
Language : English
Default : No
Forced : No

Audio #4
ID : 5
Format : AC-3
Format/Info : Audio Coding 3
Mode extension : CM (complete main)
Format settings, Endianness : Big
Codec ID : A_AC3
Duration : 59mn 23s
Bit rate mode : Constant
Bit rate : 448 Kbps
Channel(s) : 6 channels
Channel positions : Front: L C R, Side: L R, LFE
Sampling rate : 48.0 KHz
Frame rate : 31.250 fps (1536 spf)
Compression mode : Lossy
Stream size : 190 MiB (4%)
Title : Original: AC3 5.1 48kHz@448kbps
Language : English
Default : No
Forced : No

Text #1
ID : 6
Format : UTF-8
Codec ID : S_TEXT/UTF8
Codec ID/Info : UTF-8 Plain Text
Duration : 58mn 49s
Bit rate : 1 bps
Count of elements : 6
Stream size : 545 Bytes (0%)
Title : Forced
Language : Russian
Default : Yes
Forced : Yes

Text #2
ID : 7
Format : UTF-8
Codec ID : S_TEXT/UTF8
Codec ID/Info : UTF-8 Plain Text
Duration : 58mn 49s
Bit rate : 102 bps
Count of elements : 747
Stream size : 44.2 KiB (0%)
Language : Russian
Default : No
Forced : No

Text #3
ID : 8
Format : UTF-8
Codec ID : S_TEXT/UTF8
Codec ID/Info : UTF-8 Plain Text
Duration : 57mn 20s
Bit rate : 63 bps
Count of elements : 793
Stream size : 26.7 KiB (0%)
Language : English
Default : No
Forced : No

Text #4
ID : 9
Format : UTF-8
Codec ID : S_TEXT/UTF8
Codec ID/Info : UTF-8 Plain Text
Duration : 58mn 49s
Bit rate : 64 bps
Count of elements : 851
Stream size : 27.8 KiB (0%)
Title : SDH
Language : English
Default : No
Forced : No

Menu
00:00:00.000 : en:00:00:00
00:09:55.759 : en:00:09:55
00:20:59.160 : en:00:20:59
00:29:41.838 : en:00:29:41
00:39:36.319 : en:00:39:36
00:48:50.719 : en:00:48:50



Скачать Война.и.Мир.War.and.Peace.(сезон.01).(Том.Харпер).[2016.драма.мелодрама.военный.история.экранизация.BDRip].[1080p].[MVO.(LostFilm)]+[Eng].torrent без регистрации
Золото ЗОЛОТАЯ РАЗДАЧА! СКАЧАННОЕ НЕ ЗАСЧИТЫВАЕТСЯ! Золото
Дата: Зарегистрирован   [ Тип: внутренний ] Как тут cкачать?
MAGNET ссылка
MAGNET ссылка


Скачать .torrent

164 KB

Статус: проверено DHT
Скачан: торрент - 57 раз, раздача полностью - 9 раз
Размер: 32,43 GB
Оценка:  - (Голосов: 0)
Поблагодарили: 0
Поделиться ссылкой на эту раздачу с друзьями:
В контактеFacebookОдноклассникиTwitterLivejournalМой МирLiveinternet
 

 
Показать сообщения:    


Вы не можете начинать темы
Вы не можете отвечать на сообщения
Вы не можете редактировать свои сообщения
Вы не можете удалять свои сообщения
Вы не можете голосовать в опросах
Вы не можете прикреплять файлы к сообщениям
Вы можете скачивать файлы