Loading...
Error

Скачать Слепая ярость / Blind Fury (Филлип Нойс) [1989, боевик, триллер, драма, комедия, криминал, BDRip] [Dub]+[MVO]x4+[AVO]x2+[Оригинал] торрент без регистрации

 
Статистика раздачи
Размер:  2,16 GB   |    Скачан:  35 раз

Полного источника не было: 23 минуты

 
Автор Сообщение

Marsianka

[] 

Информация о фильме
Название: Слепая ярость
Оригинальное название: Blind Fury
Год выхода: 1989
Жанр: боевик, триллер, драма, комедия, криминал
Режиссер: Филлип Нойс
В ролях: Рутгер Хауэр, Терри О`Куинн, Брэндон Колл, Ноубл Уиллингэм, Лиза Блаунт, Ник Кассаветис, Рик Овертон, Рэндал «Текс» Кобб, Чарльз Купер, Мег Фостер, Сё Косуги, Пол Джеймс Васкес, Джулия Гонзалез, Вуди Уотсон, Алекс Моррис, Марк Фикерт, Уизел Форшоу, Рой Морган, С.К. МакФарланд, Т.Дж. МакФарланд, Блу Декерт, Гленн Ламперт, Ред Митчел, Бонни Саггс, Гарольд Саггс, Дороти Ле Мэй, Шарон Шакелфорд, Тайгер Чун Ли, Р. Нельсон Браун, Линкольн Кэйси мл., Дебора Уильямс, Кайл Тэтчер, Патриция Мэтьюз, Эрнест Макк, Линвуд Уолкер, Роберт Прентисс, Джеффри Дж. Дашнау, Гленн Р. Уайлдер, Дэвид Р. Эллис, Майкл Адамс, Дэйв

О фильме:
На первый взгляд он беспомощный слепой, один из тысяч несчастных бродяг. Но не стоит слишком полагаться на собственное зрение… Ветеран Вьетнама Ник Паркер ослеп на войне, но жестокий Восток научил свою жертву великому искусству защищаться.

Вернувшись к мирной жизни, бывший солдат вынужден снова вступить в бой. Нику не нужно видеть своих врагов. Слепая ярость приведет его прямо к ним…



Страна: США
Студия: TriStar Pictures, Interscope Communications
Продолжительность: 01:26:26
Перевод: Профессиональный (полное дублирование)[Варус-Видео] + 4хПрофессиональный (многоголосый, закадровый)[R5, Видеосервис, СТС, Первый канал] + 2хАвторский (одноголосый, закадровый)[А.Гаврилов, В. Завгородний] + Оригинал (английский)

Файл
Качество: BDRip (исх. Blind Fury (1989) Blu-ray 1080р AVC DD2.0)
Кодек: XviD
Видео: 720x384 (1.85:1), 23,976 fps, Xvid ~2021 kbps avg, 0.305 bit/pixel
Аудио#1: 48 kHz, AC3, 2 ch, ~192.00 kbps avg | русский | Профессиональный (полное дублирование)[Варус-Видео]
Аудио#2: 48 kHz, AC3, 2 ch, ~192.00 kbps avg | русский | Авторский (одноголосый, закадровый)[А.Гаврилов]
Аудио#3: 48 kHz, AC3, 2 ch, ~192.00 kbps avg | русский | Профессиональный (многоголосый, закадровый)[R5] | отдельным файлом
Аудио#4: 48 kHz, AC3, 2 ch, ~192.00 kbps avg | русский | Профессиональный (многоголосый, закадровый)[Видеосервис] | отдельным файлом
Аудио#5: 48 kHz, AC3, 2 ch, ~192.00 kbps avg | русский | Профессиональный (многоголосый, закадровый)[СТС] | отдельным файлом
Аудио#6: 48 kHz, AC3, 2 ch, ~192.00 kbps avg | русский | Профессиональный (многоголосый, закадровый)[Первый канал] | отдельным файлом
Аудио#7: 48 kHz, AC3, 2 ch, ~192.00 kbps avg | русский | Авторский (одноголосый, закадровый)[В. Завгородний] | отдельным файлом
Аудио#8: 48 kHz, AC3, 2 ch, ~192.00 kbps avg | английский | Оригинал | отдельным файлом
Субтитры: Отсутствуют
Семпл
Общее
Полное имя : Blind Fury.1989.XviD.BDRipBlind Fury.1989.XviD.BDRip.avi
Формат : AVI
Формат/Информация : Audio Video Interleave
Размер файла : 1,46 Гбайт
Продолжительность : 1 ч. 26 м.
Общий поток : 2419 Кбит/сек
Программа кодирования : VirtualDubMod 1.5.10.3 (build 2550/release)
Библиотека кодирования : VirtualDubMod build 2550/release

Видео
Идентификатор : 0
Формат : MPEG-4 Visual
Профиль формата : Advanced Simple@L5
Параметр BVOP формата : 2
Параметр QPel формата : Нет
Параметр GMC формата : Без точки перехода
Параметр матрицы формата : Default (MPEG)
Идентификатор кодека : XVID
Идентификатор кодека/Подсказка : XviD
Продолжительность : 1 ч. 26 м.
Битрейт : 2021 Кбит/сек
Ширина : 720 пикселей
Высота : 384 пикселя
Соотношение сторон : 1,85:1
Частота кадров : 23,976 кадра/сек
Цветовое пространство : YUV
Субдискретизация насыщенности : 4:2:0
Битовая глубина : 8 бит
Тип развёртки : Прогрессивная
Метод сжатия : С потерями
Бит/(Пиксели*Кадры) : 0.305
Размер потока : 1,22 Гбайт (84%)
Библиотека кодирования : XviD 73

Аудио #1
Идентификатор : 1
Формат : AC-3
Формат/Информация : Audio Coding 3
Расширение режима : CM (complete main)
Параметр Endianness формата : Big
Идентификатор кодека : 2000
Продолжительность : 1 ч. 26 м.
Вид битрейта : Постоянный
Битрейт : 192 Кбит/сек
Каналы : 2 канала
Расположение каналов : Front: L R
Частота : 48,0 КГц
Метод сжатия : С потерями
Размер потока : 119 Мбайт (8%)
Выравнивание : Разделение по промежуткам
Продолжительность промежутка : 42 мс. (1,00 видеокадр)
Время предзагрузки промежутка : 500 мс.

Аудио #2
Идентификатор : 2
Формат : AC-3
Формат/Информация : Audio Coding 3
Расширение режима : CM (complete main)
Параметр Endianness формата : Big
Идентификатор кодека : 2000
Продолжительность : 1 ч. 26 м.
Вид битрейта : Постоянный
Битрейт : 192 Кбит/сек
Каналы : 2 канала
Расположение каналов : Front: L R
Частота : 48,0 КГц
Метод сжатия : С потерями
Размер потока : 119 Мбайт (8%)
Выравнивание : Разделение по промежуткам
Продолжительность промежутка : 42 мс. (1,00 видеокадр)
Время предзагрузки промежутка : 500 мс.



Скачать Слепая.ярость.Blind.Fury.(Филлип.Нойс).[1989.боевик.триллер.драма.комедия.криминал.BDRip].[Dub]+[MVO]x4+[AVO]x2+[Оригинал].torrent без регистрации
Золото ЗОЛОТАЯ РАЗДАЧА! СКАЧАННОЕ НЕ ЗАСЧИТЫВАЕТСЯ! Золото
Дата: Зарегистрирован   [ Тип: внутренний ] Как тут cкачать?
MAGNET ссылка
MAGNET ссылка


Скачать .torrent

12 KB

Статус: проверено DHT
Скачан: торрент - 35 раз, раздача полностью - 2 раз
Размер: 2,16 GB
Оценка:  - (Голосов: 0)
Поблагодарили: 0
Поделиться ссылкой на эту раздачу с друзьями:
В контактеFacebookОдноклассникиTwitterLivejournalМой МирLiveinternet
 

 
Показать сообщения:    


Вы не можете начинать темы
Вы не можете отвечать на сообщения
Вы не можете редактировать свои сообщения
Вы не можете удалять свои сообщения
Вы не можете голосовать в опросах
Вы не можете прикреплять файлы к сообщениям
Вы можете скачивать файлы