Loading...
Error

Скачать Слепая ярость / Blind Fury (Филлип Нойс) [1989, боевик, триллер, драма, комедия, криминал, BDRip] [MVO]+[Dub]+[AVO (А. Гаврилов)] торрент без регистрации

 
Статистика раздачи
Размер:  1,47 GB   |    Скачан:  46 раз
Сидов:  1  [  0 KB/s  ]  
 
Автор Сообщение

Marsianka

[] 

Информация о фильме
Название: Слепая ярость
Оригинальное название: Blind Fury
Год выхода: 1989
Жанр: боевик, триллер, драма, комедия, криминал
Режиссер: Филлип Нойс / Phillip Noyce
В ролях: Рутгер Хауэр, Терри О’Куинн, Брэндон Колл, Ноубл Уиллингэм, Лиза Блаунт, Ник Кассаветис, Рик Овертон, Рэндал «Текс» Кобб, Чарльз Купер, Мег Фостер

О фильме:
На первый взгляд он беспомощный слепой, один из тысяч несчастных бродяг. Но не стоит слишком полагаться на собственное зрение... Ветеран Вьетнама Ник Паркер ослеп на войне, но жестокий Восток научил свою жертву великому искусству защищаться.
Вернувшись к мирной жизни, бывший солдат вынужден снова вступить в бой. Нику не нужно видеть своих врагов. Слепая ярость приведет его прямо к ним.



Страна: США
Студия: TriStar Pictures, Interscope Communications
Продолжительность: 01:26:25
Перевод: Профессиональный (многоголосый закадровый) Видео-сервис, Профессиональный (дублированный) Варус-Видео, Авторский (одноголосый закадровый) А. Гаврилов

Файл
Кодек: XviD
Качество: BDRip
Видео: 704x400, 23,976 fps, 1845 kbps
Аудио 1: AC3, 2 ch, 48 kHz, 192 kbps | Варус-Видео
Аудио 2: AC3, 2 ch, 48 kHz, 192 kbps | Видео-сервис
Аудио 3: AC3, 2 ch, 48 kHz, 192 kbps | А. Гаврилов
Общее
Полное имя : Blind.Fury.1989.BDRip.avi
Формат : AVI
Формат/Информация : Audio Video Interleave
Размер файла : 1,47 Гбайт
Продолжительность : 1 ч. 26 м.
Общий поток : 2441 Кбит/сек
Программа кодирования : VirtualDubMod 1.5.10.2 (build 2542/release)
Библиотека кодирования : VirtualDubMod build 2542/release

Видео
Идентификатор : 0
Формат : MPEG-4 Visual
Профиль формата : Advanced Simple@L5
Параметр BVOP формата : 1
Параметр QPel формата : Нет
Параметр GMC формата : Без точки перехода
Параметр матрицы формата : Выборочная
Идентификатор кодека : XVID
Идентификатор кодека/Подсказка : XviD
Продолжительность : 1 ч. 26 м.
Битрейт : 1845 Кбит/сек
Ширина : 704 пикс.
Высота : 400 пикс.
Соотношение сторон : 16:9
Частота кадров : 23,976 кадр/сек
Цветовое пространство : YUV
Подвыборка цветности : 4:2:0
Битовая глубина : 8 бит
Тип развёртки : Прогрессивная
Метод сжатия : С потерями
Бит/(Пиксели*Кадры) : 0.273
Размер потока : 1,11 Гбайт (76%)
Библиотека кодирования : XviD 73

Аудио #1
Идентификатор : 1
Формат : AC-3
Формат/Информация : Audio Coding 3
Профиль формата : Dolby Digital
Расширение режима : CM (complete main)
Идентификатор кодека : 2000
Продолжительность : 1 ч. 26 м.
Вид битрейта : Постоянный
Битрейт : 192 Кбит/сек
Канал(ы) : 2 канала(ов)
Расположение каналов : Front: L R
Частота : 48,0 КГц
Битовая глубина : 16 бит
Метод сжатия : С потерями
Размер потока : 119 Мбайт (8%)
Выравнивание : Разделение по промежуткам
Продолжительность промежутка : 42 мс. (1,00 видеокадр)
Время предзагрузки промежутка : 500 ms

Аудио #2
Идентификатор : 2
Формат : AC-3
Формат/Информация : Audio Coding 3
Профиль формата : Dolby Digital
Расширение режима : CM (complete main)
Идентификатор кодека : 2000
Продолжительность : 1 ч. 26 м.
Вид битрейта : Постоянный
Битрейт : 192 Кбит/сек
Канал(ы) : 2 канала(ов)
Расположение каналов : Front: L R
Частота : 48,0 КГц
Битовая глубина : 16 бит
Метод сжатия : С потерями
Размер потока : 119 Мбайт (8%)
Выравнивание : Разделение по промежуткам
Продолжительность промежутка : 42 мс. (1,00 видеокадр)
Время предзагрузки промежутка : 500 ms

Аудио #3
Идентификатор : 3
Формат : AC-3
Формат/Информация : Audio Coding 3
Расширение режима : CM (complete main)
Идентификатор кодека : 2000
Продолжительность : 1 ч. 26 м.
Вид битрейта : Постоянный
Битрейт : 192 Кбит/сек
Канал(ы) : 2 канала(ов)
Расположение каналов : Front: L R
Частота : 48,0 КГц
Битовая глубина : 16 бит
Метод сжатия : С потерями
Размер потока : 119 Мбайт (8%)
Выравнивание : Разделение по промежуткам
Продолжительность промежутка : 42 мс. (1,00 видеокадр)
Время предзагрузки промежутка : 500 ms
Релиз от: Leon-masl



Скачать Слепая.ярость.Blind.Fury.(Филлип.Нойс).[1989.боевик.триллер.драма.комедия.криминал.BDRip].[MVO]+[Dub]+[AVO.(А.Гаврилов)].torrent без регистрации
Золото ЗОЛОТАЯ РАЗДАЧА! СКАЧАННОЕ НЕ ЗАСЧИТЫВАЕТСЯ! Золото
Дата: Зарегистрирован   [ Тип: внутренний ] Как тут cкачать?
MAGNET ссылка
MAGNET ссылка


Скачать .torrent

16 KB

Статус: проверено DHT
Скачан: торрент - 46 раз, раздача полностью - 7 раз
Размер: 1,47 GB
Оценка:  - (Голосов: 0)
Поблагодарили: 0
Поделиться ссылкой на эту раздачу с друзьями:
В контактеFacebookОдноклассникиTwitterLivejournalМой МирLiveinternet
 

 
Показать сообщения:    


Вы не можете начинать темы
Вы не можете отвечать на сообщения
Вы не можете редактировать свои сообщения
Вы не можете удалять свои сообщения
Вы не можете голосовать в опросах
Вы не можете прикреплять файлы к сообщениям
Вы можете скачивать файлы