Loading...
Error

Скачать Война и Мир / War & Peace (Сезон 1, Серия 1-6 из 6) (Том Харпер) [2016 , Драма, мелодрама, военный, история, экранизация , BDRip 1080p] [MVO] [LostFilm , English ] [DD5.1] + [Subs Rus , Eng] торрент без регистрации

 
Статистика раздачи
Размер:  25,85 GB   |    Скачан:  102 раза
Сидов:  1  [  0 KB/s  ]  
 
Автор Сообщение

Nikolai.Baranov

[] 





Война и Мир / War & Peace Сезон 1, Серия 1-6 из 6




Год выпуска:2016
Выпущено:США , Великобритания, BBC Cymru Wales, BBC Worldwide, The Weinstein Company LLC
Жанр: Драма, мелодрама, военный, история, экранизация
Продолжительность: 01:00:00
Сезон:1
Серия: 1-6
Количество серий в сезоне: 6

Озвучка 1: Профессиональный многоголосый - LostFilm -Русский

Озвучка 2: Профессиональный многоголосый - Английский - Оригинал

Субтитры: : Русские,Английские

Официальный сайт



Режиссер: Том Харпер

Сценаристы::Эндрю Дэвис, Лев Толстой


В ролях: Пол Дано (Пьер Безухов), Джеймс Нортон (Андрей Болконский), Лили Джеймс (Наташа Ростова), Эдриен Эдмондсон (граф Илья Ростов), Джек Лауден (Николай Ростов), Таппенс Миддлтон (Элен Безухова), Каллам Тернер (Анатоль Курагин), Джесси Бакли (Марья Болконская), Том Берк (Федор Долохов), Джим Бродбент (князь Николай Болконский), Матье Кассовитц (Наполеон Бонапарт), Брайан Кокс (генерал Михаил Кутузов), Джиллиан Андерсон (Анна Павловна Шерер).



О сериале "Война и мир":
«Война и мир» — экранизация монументального одноименного романа-эпопеи Льва Николаевича Толстого, производством которой занимался британский канал BBC, подаривший зрителям такие хиты «классики на новый лад», как «Шерлок» (Sherlock) и «Мушкетеры» (The Musketeers). В новом творении ветерана телевидения, сценариста Эндрю Дэвиса, акцент сделан на интриги в отношениях персонажей, зрелищные батальные сцены, аутентичные интерьеры (сериал снимался в том числе в старинных русских дворцах и усадьбах), а также на точное воспроизведение эпохи — от расшитых вручную костюмов до манеры поведения героев. Вкупе с проникновенной игрой актеров это сделало современную версию «Войны и мира» увлекательной и глубокой историей, которая придется по душе как страстным почитателям романа, так и совершенно не знакомой с оригиналом публике.

Сюжет:
Россия, 1805 год. Благородные аристократы погрязли в праздности, давно оторвались от собственного народа и даже предпочли французский родному языку. Высший свет с его пышными балами и блестящими приемами, на которых строятся козни и распространяются сплетни, представлен в лице знатной дамы Анны Павловны Шерер. В ее салон наведывается князь Василий Курагин, пытающийся выгодно пристроить своих развращенных и избалованных детей — обольстительную красавицу Элен и легкомысленного кутилу Анатоля. Туда же прибывает добродушный и доверчивый Пьер — единственный наследник одного из богатейших графов империи, Кирилла Безухова, за состояние которого вскоре разгорается подковерная битва. Между тем, уставший от светского лицемерия и череды бессмысленных развлечений князь Андрей Болконский оставляет беременную жену на попечение добродетельной сестрицы Марьи и сварливого отца Николая Андреевича, а сам отправляется на фронт. Но никто из них, включая большую дружную семью Ростовых, в которой растет полная энергии девушка Наташа, не подозревает, как сильно внезапная война с Наполеоном изменит их беззаботные жизни, привычный уклад и личные ценности. Жестокие потери и ужасающие смерти встанут на пути к их истинному счастью…






Качество :BDRip 1080p
Формат: MKV
Видео кодек: H264
Видео: 8345Кбит/сек,1920х1080(16.9),в 25.000кадр/сек,AVC(High@L4.1)(CABAC/3 Ref Frames)
Аудио Кодек:AC3

Аудио #1:AC3 , 640 Kbps, 48.0 KHz, 6 ch- LostFilm -Русский

Аудио #2: AC3, 640 Kbps, 48.0 KHz,6 ch - - English - Оригинал


Звуковая дорожка сделана путем наложения чистого голоса озвучивателей на центральный канал оригинальной дорожки. Качество идентично звуковой дорожке.




01 Эпизод 1
02 Эпизод 2
03 Эпизод 3
04 Эпизод 4
05 Эпизод 5
06 Эпизод 6



Общее
Уникальный идентификатор : 251067371100821442636430993857299743079 (0xBCE1D11A3577CC91BB550140266A0167)
Полное имя : E:\К ИНО\ВОЙНА И МИР\WAR_&_PEACЕ_2016_S01_[LostFilm]_Н264_DD5.1_N.B_BDRip_1080p_Rus_Eng\WAR_&_PEACЕ_2016_S01E01_[LostFilm]_Н264_DD5.1_N.B_BDRip_1080p_Rus_Eng.mkv
Формат : Matroska
Версия формата : Version 4 / Version 2
Размер файла : 3,99 Гбайт
Продолжительность : 59 м.
Общий поток : 9625 Кбит/сек
Название фильма : WAR_&_PEACЕ_2016_S01E01_[LostFilm]_Н264_DD5.1_N.B_BDRip_1080p_Rus_Eng
Дата кодирования : UTC 2016-03-15 22:12:53
Программа кодирования : mkvmerge v8.9.0 ('Father Daughter') 64bit
Библиотека кодирования : libebml v1.3.3 + libmatroska v1.4.4

Видео
Идентификатор : 1
Формат : AVC
Формат/Информация : Advanced Video Codec
Профиль формата : High@L4.1
Параметр CABAC формата : Да
Параметр ReFrames формата : 3 кадра
Идентификатор кодека : V_MPEG4/ISO/AVC
Продолжительность : 59 м.
Битрейт : 8345 Кбит/сек
Ширина : 1920 пикселей
Высота : 1080 пикселей
Соотношение сторон : 16:9
Режим частоты кадров : Постоянный
Частота кадров : 25,000 кадров/сек
Цветовое пространство : YUV
Субдискретизация насыщенности : 4:2:0
Битовая глубина : 8 бит
Тип развёртки : Прогрессивная
Бит/(Пиксели*Кадры) : 0.161
Размер потока : 3,46 Гбайт (87%)
Заголовок : War and Peace [S01-E01] (2016)
Библиотека кодирования : x264 core 148 r2665kMod a01e339
Настройки программы : cabac=1 / ref=4 / deblock=1:0:0 / analyse=0x3:0x133 / me=umh / subme=10 / psy=1 / fade_compensate=0.00 / psy_rd=1.00:0.00 / mixed_ref=1 / me_range=24 / chroma_me=1 / trellis=2 / 8x8dct=1 / cqm=0 / deadzone=21,11 / fast_pskip=1 / chroma_qp_offset=-2 / threads=10 / lookahead_threads=1 / sliced_threads=0 / nr=0 / decimate=1 / interlaced=0 / bluray_compat=1 / constrained_intra=0 / fgo=0 / bframes=3 / b_pyramid=1 / b_adapt=2 / b_bias=0 / direct=3 / weightb=1 / open_gop=0 / weightp=1 / keyint=250 / keyint_min=1 / scenecut=40 / intra_refresh=0 / rc_lookahead=60 / rc=2pass / mbtree=1 / bitrate=8345 / ratetol=1.0 / qcomp=0.60 / qpmin=0 / qpmax=69 / qpstep=4 / cplxblur=20.0 / qblur=0.5 / ip_ratio=1.40 / aq=1:1.00
Язык : English
Default : Да
Forced : Нет

Аудио #1
Идентификатор : 6
Формат : AC-3
Формат/Информация : Audio Coding 3
Расширение режима : CM (complete main)
Параметр Endianness формата : Big
Идентификатор кодека : A_AC3
Продолжительность : 59 м.
Вид битрейта : Постоянный
Битрейт : 640 Кбит/сек
Каналы : 6 каналов
Расположение каналов : Front: L C R, Side: L R, LFE
Частота : 48,0 КГц
Частота кадров : 31,250 кадров/сек (1536 spf)
Метод сжатия : С потерями
Размер потока : 272 Мбайт (7%)
Default : Да
Forced : Нет

Аудио #2
Идентификатор : 7
Формат : AC-3
Формат/Информация : Audio Coding 3
Расширение режима : CM (complete main)
Параметр Endianness формата : Big
Идентификатор кодека : A_AC3
Продолжительность : 59 м.
Вид битрейта : Постоянный
Битрейт : 640 Кбит/сек
Каналы : 6 каналов
Расположение каналов : Front: L C R, Side: L R, LFE
Частота : 48,0 КГц
Частота кадров : 31,250 кадров/сек (1536 spf)
Метод сжатия : С потерями
Размер потока : 272 Мбайт (7%)
Default : Нет
Forced : Нет

Текст #1
Идентификатор : 2
Формат : UTF-8
Идентификатор кодека : S_TEXT/UTF8
Идентификатор кодека/Информация : UTF-8 Plain Text
Продолжительность : 58 м.
Битрейт : 1 бит/сек
Count of elements : 6
Размер потока : 545 байт (0%)
Заголовок : Forced
Язык : Russian
Default : Да
Forced : Да

Текст #2
Идентификатор : 3
Формат : UTF-8
Идентификатор кодека : S_TEXT/UTF8
Идентификатор кодека/Информация : UTF-8 Plain Text
Продолжительность : 58 м.
Битрейт : 102 бит/сек
Count of elements : 747
Размер потока : 44,2 Кбайт (0%)
Язык : Russian
Default : Нет
Forced : Нет

Текст #3
Идентификатор : 4
Формат : UTF-8
Идентификатор кодека : S_TEXT/UTF8
Идентификатор кодека/Информация : UTF-8 Plain Text
Продолжительность : 57 м.
Битрейт : 63 бит/сек
Count of elements : 793
Размер потока : 26,7 Кбайт (0%)
Язык : English
Default : Нет
Forced : Нет

Текст #4
Идентификатор : 5
Формат : UTF-8
Идентификатор кодека : S_TEXT/UTF8
Идентификатор кодека/Информация : UTF-8 Plain Text
Продолжительность : 58 м.
Битрейт : 64 бит/сек
Count of elements : 851
Размер потока : 27,8 Кбайт (0%)
Заголовок : SDH
Язык : English
Default : Нет
Forced : Нет







1. Открыть торрент
2. Снять галки с тех файлов торрента, которые мы не хотим закачивать. Оставляем только на нужных нам файлах (файле).
3. Нажать О.К.

В клиенте utorrent

Инструкция

1) Открыть торрент


2) Снять галки с тех файлов торрента, которые мы не хотим закачивать:

* либо вручную, снимая с каждого файла галку( скрин №1)
* либо, нажав кнопку "Снять метки (Select None)", сняв сразу со всех файлов(скрин №2)
№1

№2

Оставляем только на нужных нам файлах (файле).

3)Нажать О.К






Релиз от: Nikolai.Baranov & PIRATIYA










Скачать Война.и.Мир.War.&.Peace.(Сезон.1.Серия.1-6.из.6).(Том.Харпер).[2016.Драма.мелодрама.военный.история.экранизация.BDRip.1080p].[MVO].[LostFilm.English.].[DD5.1].+.[Subs.Rus.Eng].torrent без регистрации
Золото ЗОЛОТАЯ РАЗДАЧА! СКАЧАННОЕ НЕ ЗАСЧИТЫВАЕТСЯ! Золото
Дата: Зарегистрирован   [ Тип: внутренний ] Как тут cкачать?
MAGNET ссылка
MAGNET ссылка


Скачать .torrent

66 KB

Статус: проверено DHT
Скачан: торрент - 102 раз, раздача полностью - 33 раз
Размер: 25,85 GB
Оценка:  - (Голосов: 0)
Поблагодарили: 1
Поделиться ссылкой на эту раздачу с друзьями:
В контактеFacebookОдноклассникиTwitterLivejournalМой МирLiveinternet
 

 
Показать сообщения:    


Вы не можете начинать темы
Вы не можете отвечать на сообщения
Вы не можете редактировать свои сообщения
Вы не можете удалять свои сообщения
Вы не можете голосовать в опросах
Вы не можете прикреплять файлы к сообщениям
Вы можете скачивать файлы