Loading...
Error

Скачать Агенты Щ.И.Т. / Agents of S.H.I.E.L.D. (сезон 03) (Винс Мисиано и др.) [2015, боевик, фантастика, драма, WEB-DL] [1080p] [Dub (Невафильм)]+[Eng]+[Sub Rus, Eng] торрент без регистрации

 
Статистика раздачи
Размер:  36,97 GB   |    Скачан:  428 раз

Полного источника не было: 26 минут

 
Автор Сообщение

МихаНЕзатор

[] 


Агенты Щ.И.Т. / Agents of S.H.I.E.L.D.

Год выпуска: 2015-2016
Страна: США
Жанр: боевик, фантастика, драма
Продолжительность: ~ 00:42:00
Перевод: Профессиональный (дублированый) Невафильм

Режиссёры: Винс Мисиано, Билл Джирхарт, Бобби Рот

В ролях: Кларк Грегг (Фил Колсон), Минг-На Вен (Мелинда Мэй), Бретт Далтон (Грант Уорд), Хлоя Беннет (Дейзи «Скай» Джонсон), Йен де Кестекер (Лео Фитц), Элизабет Хенстридж (Джемма Симмонс), Ник Блад (Лэнс Хантер), Эдрианн Палики (Барбара «Бобби» Морс), Генри Симмонс (Альфонсо «Мак» Маккензи), Люк Митчелл (Линкольн Кэмпбелл)

Описание: Действия сериала разворачиваются после событий фильма "Мстители". Фил Колсон возвращается в правоохранительную организацию под названием Щ.И.Т. Собрав небольшую команду профессионалов, он начинает работу над новыми делами, которые порой бывают очень странными. Новоиспечённой команде придётся не только сойтись в оперативной, а также исследовательской работе, но и сойтись характерами, чтобы дать отпор всем врагам организации Щ.И.Т.



Качество: WEB-DL 1080p
Формат: MKV
Видео: 1920x1080 (16:9), H.264, ~5 000 Kbps, 23.976 fps
Аудио 1: AC3, 48.0 KHz, 2 ch, 192 kbps RUS
Аудио 2: AC3, 48.0 KHz, 6 ch, 384 kbps ENG
Субтитры: русские, английские

Запись звука - BS666, синхронизация - k-marat-s. Субтитры - Firefly2012, синхронизация - qqss44.

АНОНСЫ ПОПУЛЯРНЫХ РАЗДАЧ


Торрент обновлён, добавлена 22-я серия!
Общее
Формат : Matroska
Версия формата : Version 4 / Version 2
Размер файла : 1,70 Гбайт
Продолжительность : 43 м.
Общий поток : 5644 Кбит/сек
Дата кодирования : UTC 2015-10-23 18:18:00
Программа кодирования : mkvmerge v7.1.0 ('Good Love') 64bit built on Jul 27 2014 13:06:55
Библиотека кодирования : libebml v1.3.0 + libmatroska v1.4.1
_STATISTICS_TAGS : BPS DURATION NUMBER_OF_FRAMES NUMBER_OF_BYTES
DURATION : 00:43:03.392000000
NUMBER_OF_FRAMES : 80731
NUMBER_OF_BYTES : 62001408

Видео
Формат : AVC
Формат/Информация : Advanced Video Codec
Профиль формата : High@L4.0
Параметр CABAC формата : Да
Параметр ReFrames формата : 4 кадра
Идентификатор кодека : V_MPEG4/ISO/AVC
Продолжительность : 43 м.
Битрейт : 4956 Кбит/сек
Ширина : 1920 пикселей
Высота : 1080 пикселей
Соотношение сторон : 16:9
Режим частоты кадров : Постоянный
Частота кадров : 23,976 кадра/сек
Цветовое пространство : YUV
Субдискретизация насыщенности : 4:2:0
Битовая глубина : 8 бит
Тип развёртки : Прогрессивная
Бит/(Пиксели*Кадры) : 0.100
Размер потока : 1,49 Гбайт (88%)
Язык : English
Default : Да
Forced : Нет
Основные цвета : BT.709
Характеристики трансфера : BT.709
Коэффициенты матрицы : BT.709

Аудио #1
Формат : AC-3
Формат/Информация : Audio Coding 3
Расширение режима : CM (complete main)
Параметр Endianness формата : Big
Идентификатор кодека : A_AC3
Продолжительность : 43 м.
Вид битрейта : Постоянный
Битрейт : 192 Кбит/сек
Каналы : 2 канала
Расположение каналов : Front: L R
Частота : 48,0 КГц
Битовая глубина : 16 бит
Метод сжатия : С потерями
Размер потока : 59,1 Мбайт (3%)
Язык : Russian
Default : Да
Forced : Нет

Аудио #2
Формат : AC-3
Формат/Информация : Audio Coding 3
Расширение режима : CM (complete main)
Параметр Endianness формата : Big
Идентификатор кодека : A_AC3
Продолжительность : 43 м.
Вид битрейта : Постоянный
Битрейт : 384 Кбит/сек
Каналы : 6 каналов
Расположение каналов : Front: L C R, Side: L R, LFE
Частота : 48,0 КГц
Битовая глубина : 16 бит
Метод сжатия : С потерями
Размер потока : 118 Мбайт (7%)
Язык : English
Default : Нет
Forced : Нет

Текст #1
Формат : UTF-8
Идентификатор кодека : S_TEXT/UTF8
Идентификатор кодека/Информация : UTF-8 Plain Text
Язык : Russian
Default : Нет
Forced : Нет

Текст #2
Формат : UTF-8
Идентификатор кодека : S_TEXT/UTF8
Идентификатор кодека/Информация : UTF-8 Plain Text
Язык : English
Default : Нет
Forced : Нет



Скачать Агенты.Щ.И.Т.Agents.of.S.H.I.E.L.D.(сезон.03).(Винс.Мисиано.и.др.).[2015.боевик.фантастика.драма.WEB-DL].[1080p].[Dub.(Невафильм)]+[Eng]+[Sub.Rus.Eng].torrent без регистрации
Золото ЗОЛОТАЯ РАЗДАЧА! СКАЧАННОЕ НЕ ЗАСЧИТЫВАЕТСЯ! Золото
Дата: Зарегистрирован   [ Тип: внутренний ] Как тут cкачать?
MAGNET ссылка
MAGNET ссылка


Скачать .torrent

187 KB

Статус: проверено DHT
Скачан: торрент - 428 раз, раздача полностью - 1 раз
Размер: 36,97 GB
Оценка:  - (Голосов: 0)
Поблагодарили: 0
Поделиться ссылкой на эту раздачу с друзьями:
В контактеFacebookОдноклассникиTwitterLivejournalМой МирLiveinternet
 

 
Показать сообщения:    


Вы не можете начинать темы
Вы не можете отвечать на сообщения
Вы не можете редактировать свои сообщения
Вы не можете удалять свои сообщения
Вы не можете голосовать в опросах
Вы не можете прикреплять файлы к сообщениям
Вы можете скачивать файлы