Loading...
Error

Скачать Вдали от дома: Приключения жёлтого пса / Far from Home: The Adventures of Yellow Dog (Филлип Борсос) [1995, приключения, семейный, HDTVRip] [MVO] торрент без регистрации

 
Статистика раздачи
Размер:  1,37 GB   |    Скачан:  37 раз
Сидов:  1  [  0 KB/s  ]  
 
Автор Сообщение

Marsianka

[] 

Информация о фильме
Название: Вдали от дома: Приключения жёлтого пса / Далеко от дома: Приключения желтого пса
Оригинальное название: Far from Home: The Adventures of Yellow Dog
Год выхода: 1995
Жанр: приключения, семейный
Режиссер: Филлип Борсос
В ролях: Мими Роджерс, Брюс Дэвисон, Джесси Брэдфорд, Том Бауэр, Джоэл Палмер, Мэтью Бэннетт

О фильме:
В этом приключенческом фильме рассказывается об отважном и мужественном четырнадцатилетнем подростке, оказавшемся вместе с псом по имени Желтый один на один с дикой природой Канады. Вместе с отцом они отправились в дальнее поселение лесорубов по океану, но налетевший шторм перевернул их катер, когда сын проверял крепление своей лодки. Отец остался на катере, а лодку с мальчиком и собакой выбросило на пустынный берег. В течение многих дней он шел по дикой тайге, питаясь тем, что находил в лесу со своим верным псом.
Фильм изобилует великолепными съёмками дикой канадской природы и сопровождается превосходной музыкой...



Производство: США / Twentieth Century Fox Film Corporation
Продолжительность: 01:14:39
Перевод: профессиональный (многоголосый закадровый) [1 канал]

Файл
Качество: HDTVRip
Формат: AVI
Видео: XviD, 720x400 (16:9), 25.000 fps, 2231 kbps, 0.31 bit/pixel
Аудио #1: русский, AC3 2.0, 48 kHz, 192 kbps
Аудио #2: английский, AC3 2.0, 48 kHz, 192 kbps
Формат : AVI
Формат/Информация : Audio Video Interleave
Размер файла : 1,37 Гбайт
Продолжительность : 1 ч. 14 м.
Общий поток : 2630 Кбит/сек
Название фильма : Вдали от дома: Приключения жёлтого пса / Far from Home: The Adventures of Yellow Dog (1995)
Программа кодирования : VirtualDubModRus 1.5.10.2 (build 2542/release)
Библиотека кодирования : VirtualDubMod build 2542/release

Видео
Идентификатор : 0
Формат : MPEG-4 Visual
Профиль формата : Advanced Simple@L5
Параметр BVOP формата : 2
Параметр QPel формата : Нет
Параметр GMC формата : Без точки перехода
Параметр матрицы формата : Default (MPEG)
Идентификатор кодека : XVID
Идентификатор кодека/Подсказка : XviD
Продолжительность : 1 ч. 14 м.
Битрейт : 2231 Кбит/сек
Ширина : 720 пикселей
Высота : 400 пикселей
Соотношение сторон : 16:9
Частота кадров : 25,000 кадров/сек
Цветовое пространство : YUV
Субдискретизация насыщенности : 4:2:0
Битовая глубина : 8 бит
Тип развёртки : Прогрессивная
Метод сжатия : С потерями
Бит/(Пиксели*Кадры) : 0.310
Размер потока : 1,16 Гбайт (85%)
Библиотека кодирования : XviD 1.1.0 (UTC 2005-11-22)

Аудио #1
Идентификатор : 1
Формат : AC-3
Формат/Информация : Audio Coding 3
Расширение режима : CM (complete main)
Параметр Endianness формата : Big
Идентификатор кодека : 2000
Продолжительность : 1 ч. 14 м.
Вид битрейта : Постоянный
Битрейт : 192 Кбит/сек
Каналы : 2 канала
Расположение каналов : Front: L R
Частота : 48,0 КГц
Метод сжатия : С потерями
Размер потока : 103 Мбайт (7%)
Выравнивание : Разделение по промежуткам
Продолжительность промежутка : 40 мс. (1,00 видеокадр)
Время предзагрузки промежутка : 500 мс.
Заголовок : Русский, MVO, 1 канал

Аудио #2
Идентификатор : 2
Формат : AC-3
Формат/Информация : Audio Coding 3
Расширение режима : CM (complete main)
Параметр Endianness формата : Big
Идентификатор кодека : 2000
Продолжительность : 1 ч. 14 м.
Вид битрейта : Постоянный
Битрейт : 192 Кбит/сек
Каналы : 2 канала
Расположение каналов : Front: L R
Частота : 48,0 КГц
Метод сжатия : С потерями
Размер потока : 103 Мбайт (7%)
Выравнивание : Разделение по промежуткам
Продолжительность промежутка : 40 мс. (1,00 видеокадр)
Время предзагрузки промежутка : 500 мс.
Заголовок : English, Original
Релиз от: miha2154



Скачать Вдали.от.дома.Приключения.жёлтого.пса.Far.from.Home.The.Adventures.of.Yellow.Dog.(Филлип.Борсос).[1995.приключения.семейный.HDTVRip].[MVO].torrent без регистрации
Золото ЗОЛОТАЯ РАЗДАЧА! СКАЧАННОЕ НЕ ЗАСЧИТЫВАЕТСЯ! Золото
Дата: Зарегистрирован   [ Тип: внутренний ] Как тут cкачать?
MAGNET ссылка
MAGNET ссылка


Скачать .torrent

14 KB

Статус: проверено DHT
Скачан: торрент - 37 раз, раздача полностью - 3 раз
Размер: 1,37 GB
Оценка:  - (Голосов: 0)
Поблагодарили: 1
Поделиться ссылкой на эту раздачу с друзьями:
В контактеFacebookОдноклассникиTwitterLivejournalМой МирLiveinternet
 

 
Показать сообщения:    


Вы не можете начинать темы
Вы не можете отвечать на сообщения
Вы не можете редактировать свои сообщения
Вы не можете удалять свои сообщения
Вы не можете голосовать в опросах
Вы не можете прикреплять файлы к сообщениям
Вы можете скачивать файлы