Loading...
Error

Скачать Поддержите своего шерифа! / Support Your Local Sheriff! (Берт Кеннеди) [1969, комедия, вестерн, BDRip] [MVO]+[DVO]+[Sub]x2 торрент без регистрации

 
Статистика раздачи
Размер:  1,59 GB   |    Скачан:  45 раз
Сидов:  1  [  0 KB/s  ]  
 
Автор Сообщение

Marsianka

[] 

Информация о фильме
Название: Поддержите своего шерифа!
Оригинальное название: Support Your Local Sheriff!
Год выхода: 1969
Жанр: комедия, вестерн
Режиссер: Берт Кеннеди / Burt Kennedy
В ролях: Джеймс Гарнер, Гарри Морган, Джоан Хэккетт, Уолтер Бреннан, Джек Илэм, Генри Джонс, Брюс Дерн, Уиллис Бучи, Джин Эванс, Уолтер Бурк, Дик Пибади, Чабби Джонсон, Кэтлин Фримен, Дик Хэйнс, Ричард Элден, Роберт Дж. Андерсон, Джон Дахейм, Ричард Хойт, Мэрлин Джонс, Джон Милфорд, Том Риз, Уильям Таннен

О фильме:
Джейсон МакКаллоу направлялся в Австралию, но неожиданно получил "освободившуюся" должность шерифа в городке, охваченном "золотой лихорадкой". Первая же "проба пера", в виде его потрясающей меткой стрельбы, приводит к немедленному аресту младшего сына злодея-землевладельца. МакКаллоу, несмотря на то, что с целью его убийства уже наняты люди, продолжает и дальше побеждать опытных стрелков с помощью навыков стрельбы и остроумия, а заодно, так сказать, ненавязчиво наводить в городе порядок...


Страна: США
Продолжительность: 01:32:59
Перевод: Профессиональный (многоголосый закадровый) 5 канал
Перевод 2: Профессиональный (двухголосый закадровый) НТВ+

Файл
Кодек: XviD
Качество: BDRip
Видео: 704x384 (1.83:1), 23.976 fps, XviD build 73 ~1854 kbps avg, 0.29 bit/pixel
Аудио: 48 kHz, AC3 Dolby Digital, 2/0 (L,R) ch, ~192 kbps | MVO
Аудио 2: 48 kHz, AC3 Dolby Digital, 2/0 (L,R) ch, ~192 kbps | DVO
Аудио 3: 48 kHz, AC3 Dolby Digital, 2/0 (L,R) ch, ~192 kbps | ENG (отдельно)
Субтитры: русские, английские (внешние srt*)
Семпл

General
Format : AVI
Format/Info : Audio Video Interleave
File size : 1.46 GiB
Duration : 1h 32mn
Overall bit rate : 2 253 Kbps
Writing application : VirtualDubMod 1.5.10.3 | www.virtualdub-fr.org || (build 2550/release)
Writing library : VirtualDubMod build 2550/release

Video
ID : 0
Format : MPEG-4 Visual
Format profile : Advanced Simple@L5
Format settings, BVOP : 1
Format settings, QPel : No
Format settings, GMC : No warppoints
Format settings, Matrix : Custom
Codec ID : XVID
Codec ID/Hint : XviD
Duration : 1h 32mn
Bit rate : 1 855 Kbps
Width : 704 pixels
Height : 384 pixels
Display aspect ratio : 1.85:1
Frame rate : 23.976 fps
Color space : YUV
Chroma subsampling : 4:2:0
Bit depth : 8 bits
Scan type : Progressive
Compression mode : Lossy
Bits/(Pixel*Frame) : 0.286
Stream size : 1.20 GiB (82%)
Writing library : XviD 73

Audio #1
ID : 1
Format : AC-3
Format/Info : Audio Coding 3
Mode extension : CM (complete main)
Format settings, Endianness : Big
Codec ID : 2000
Duration : 1h 32mn
Bit rate mode : Constant
Bit rate : 192 Kbps
Channel(s) : 2 channels
Channel positions : Front: L R
Sampling rate : 48.0 KHz
Bit depth : 16 bits
Compression mode : Lossy
Stream size : 128 MiB (9%)
Alignment : Split accross interleaves
Interleave, duration : 42 ms (1.00 video frame)
Interleave, preload duration : 500 ms

Audio #2
ID : 2
Format : AC-3
Format/Info : Audio Coding 3
Mode extension : CM (complete main)
Format settings, Endianness : Big
Codec ID : 2000
Duration : 1h 32mn
Bit rate mode : Constant
Bit rate : 192 Kbps
Channel(s) : 2 channels
Channel positions : Front: L R
Sampling rate : 48.0 KHz
Bit depth : 16 bits
Compression mode : Lossy
Stream size : 128 MiB (9%)
Alignment : Split accross interleaves
Interleave, duration : 42 ms (1.00 video frame)
Interleave, preload duration : 500 ms
Релиз от:

Автор рипа: Sem-te



Скачать Поддержите.своего.шерифа!.Support.Your.Local.Sheriff!.(Берт.Кеннеди).[1969.комедия.вестерн.BDRip].[MVO]+[DVO]+[Sub]x2.torrent без регистрации
Золото ЗОЛОТАЯ РАЗДАЧА! СКАЧАННОЕ НЕ ЗАСЧИТЫВАЕТСЯ! Золото
Дата: Зарегистрирован   [ Тип: внутренний ] Как тут cкачать?
MAGNET ссылка
MAGNET ссылка


Скачать .torrent

17 KB

Статус: проверено DHT
Скачан: торрент - 45 раз, раздача полностью - 0 раз
Размер: 1,59 GB
Оценка:  - (Голосов: 0)
Поблагодарили: 0
Поделиться ссылкой на эту раздачу с друзьями:
В контактеFacebookОдноклассникиTwitterLivejournalМой МирLiveinternet
 

 
Показать сообщения:    


Вы не можете начинать темы
Вы не можете отвечать на сообщения
Вы не можете редактировать свои сообщения
Вы не можете удалять свои сообщения
Вы не можете голосовать в опросах
Вы не можете прикреплять файлы к сообщениям
Вы можете скачивать файлы