Loading...
Error

Скачать Преданный садовник / The Constant Gardener (Фернанду Мейреллиш) [2005, триллер, драма, детектив, BDRip-AVC] [MVO]+[Оригинал]+[Sub]x2 торрент без регистрации

 
Статистика раздачи
Размер:  3,45 GB   |    Скачан:  50 раз
Сидов:  1  [  0 KB/s  ]  
 
Автор Сообщение

Marsianka

[] 

Информация о фильме
Название: Преданный садовник
Оригинальное название: The Constant Gardener
Год выхода: 2005
Жанр: триллер, драма, детектив
Режиссер: Фернанду Мейреллиш
В ролях: Рэйф Файнс, Рэйчел Вайз, Хьюберт Кунд, Дэнни Хьюстон, Даниэла Харфорд, Билл Найи, Дональд Самптер, Арчи Панджаби, Джерард МакСорли, Жюльет Обри, Пит Постлетуэйт, Джон Кеог, Джеффри Кейн, Ричард МакКейб, Клэйр Симпсон, Сидеде Оньюло

О фильме:
Молодая пара — Джастин и Тесс Куэйл — участвуют в британской дипломатической миссии в Кении. Все идет своим чередом до того момента, как Тесс находят мертвой. Рядом с телом девушки обнаруживают труп туземца, что бросает серьезную тень на ее репутацию и дает пищу для разного рода обидных толков. В надежде найти убийцу и восстановить доброе имя любимой жены, Джастин покидает пределы экзотической Кении и отправляется в Лондон. В ходе своего расследования молодой человек раскрывает опасный заговор, который ставит под угрозу тысячи жизней. Но причина гибели его супруги по-прежнему окутана плотной завесой тайны…



Страна: Великобритания, Германия
Студия: Epsilon Motion Pictures, Focus Features, Potboiler Productions, Scion Films Limited, UK Film Council, Vierte Babelsberg Film
Продолжительность: 02:08:22
Перевод: Профессиональный многоголосый

Файл
Кодек: MPEG-4 AVC
Качество: BDRip (AVC)
Видео: 2949 Кбит/с, 1024x552, 24 кадр/с
Звук: Русский, английский (AC3, 6 ch, 448 Кбит/с)
Субтитры: Русские, английские
Рип от StarbirS
За исходный ремукс спасибо HANSMER

Аудио: Russian: 48 kHz, AC3, 3/2 (L,C,R,l,r) + LFE ch, ~448.00 kbps avg - Профессиональный (Многоголосый закадровый)
Аудио: English: 48 kHz, AC3, 3/2 (L,C,R,l,r) + LFE ch, ~448.00 kbps avg - оригинал

x264 [info]: frame I:1298 Avg QP:17.11 size: 79061
x264 [info]: frame P:47117 Avg QP:20.21 size: 26331
x264 [info]: frame B:136442 Avg QP:22.32 size: 10942
x264 [info]: consecutive B-frames: 4.2% 6.7% 11.5% 20.8% 14.9% 32.2% 4.3% 1.2% 4.1%
Формат : Matroska
Версия формата : Version 4 / Version 2
Размер файла : 3,45 Гбайт
Продолжительность : 2 ч. 8 м.
Общий поток : 3844 Кбит/сек
Название фильма : The.Constant.Gardener.2005.D.BDRip.(AVC)
Дата кодирования : UTC 2014-01-15 05:50:35
Программа кодирования : mkvmerge v6.7.0 ('Back to the Ground') 64bit built on Jan 8 2014 15:10:52
Библиотека кодирования : libebml v1.3.0 + libmatroska v1.4.1

Видео
Идентификатор : 1
Формат : AVC
Формат/Информация : Advanced Video Codec
Профиль формата : High@L4.1
Параметр CABAC формата : Да
Параметр ReFrames формата : 11 кадров
Идентификатор кодека : V_MPEG4/ISO/AVC
Продолжительность : 2 ч. 8 м.
Битрейт : 2949 Кбит/сек
Ширина : 1024 пикселя
Высота : 552 пикселя
Соотношение сторон : 1,85:1
Режим частоты кадров : Постоянный
Частота кадров : 24,000 кадра/сек
Цветовое пространство : YUV
Субдискретизация насыщенности : 4:2:0
Битовая глубина : 8 бит
Тип развёртки : Прогрессивная
Бит/(Пиксели*Кадры) : 0.217
Размер потока : 2,57 Гбайт (75%)
Заголовок : The.Constant.Gardener.2005.D.BDRip.(AVC).by.StarbirS
Библиотека кодирования : x264 core 138 r2358 9e941d1
Настройки программы : cabac=1 / ref=11 / deblock=1:-3:-3 / analyse=0x3:0x133 / me=umh / subme=10 / psy=1 / psy_rd=1.00:0.15 / mixed_ref=1 / me_range=32 / chroma_me=1 / trellis=2 / 8x8dct=1 / cqm=0 / deadzone=21,11 / fast_pskip=0 / chroma_qp_offset=-3 / threads=6 / lookahead_threads=1 / sliced_threads=0 / nr=0 / decimate=1 / interlaced=0 / bluray_compat=0 / constrained_intra=0 / bframes=8 / b_pyramid=2 / b_adapt=2 / b_bias=0 / direct=3 / weightb=1 / open_gop=1 / weightp=2 / keyint=240 / keyint_min=24 / scenecut=40 / intra_refresh=0 / rc_lookahead=40 / rc=2pass / mbtree=1 / bitrate=2949 / ratetol=1.0 / qcomp=0.60 / qpmin=10 / qpmax=51 / qpstep=4 / cplxblur=20.0 / qblur=0.5 / ip_ratio=1.40 / aq=1:1.00
Язык : English
Default : Да
Forced : Нет
Характеристики трансфера : BT.709

Аудио #1
Идентификатор : 2
Формат : AC-3
Формат/Информация : Audio Coding 3
Расширение режима : CM (complete main)
Параметр Endianness формата : Big
Идентификатор кодека : A_AC3
Продолжительность : 2 ч. 8 м.
Вид битрейта : Постоянный
Битрейт : 448 Кбит/сек
Каналы : 6 каналов
Расположение каналов : Front: L C R, Side: L R, LFE
Частота : 48,0 КГц
Битовая глубина : 16 бит
Метод сжатия : С потерями
Размер потока : 411 Мбайт (12%)
Заголовок : Профессиональный многоголосый
Язык : Russian
Default : Да
Forced : Нет

Аудио #2
Идентификатор : 3
Формат : AC-3
Формат/Информация : Audio Coding 3
Расширение режима : CM (complete main)
Параметр Endianness формата : Big
Идентификатор кодека : A_AC3
Продолжительность : 2 ч. 8 м.
Вид битрейта : Постоянный
Битрейт : 448 Кбит/сек
Каналы : 6 каналов
Расположение каналов : Front: L C R, Side: L R, LFE
Частота : 48,0 КГц
Битовая глубина : 16 бит
Метод сжатия : С потерями
Размер потока : 411 Мбайт (12%)
Заголовок : Оригинал
Язык : English
Default : Нет
Forced : Нет

Текст #1
Идентификатор : 4
Формат : UTF-8
Идентификатор кодека : S_TEXT/UTF8
Идентификатор кодека/Информация : UTF-8 Plain Text
Заголовок : Русские
Язык : Russian
Default : Да
Forced : Нет

Текст #2
Идентификатор : 5
Формат : UTF-8
Идентификатор кодека : S_TEXT/UTF8
Идентификатор кодека/Информация : UTF-8 Plain Text
Заголовок : Английские
Default : Нет
Forced : Нет

Меню
00:00:00.000 : :00:00:00.000
00:10:16.958 : :00:10:16.958
00:22:01.417 : :00:22:01.417
00:32:31.625 : :00:32:31.625
00:41:21.042 : :00:41:21.042
00:49:43.833 : :00:49:43.833
01:05:16.625 : :01:05:16.625
01:14:56.667 : :01:14:56.667
01:24:38.667 : :01:24:38.667
01:37:57.792 : :01:37:57.792
01:49:43.583 : :01:49:43.583
01:59:35.458 : :01:59:35.458



Скачать Преданный.садовник.The.Constant.Gardener.(Фернанду.Мейреллиш).[2005.триллер.драма.детектив.BDRip-AVC].[MVO]+[Оригинал]+[Sub]x2.torrent без регистрации
Золото ЗОЛОТАЯ РАЗДАЧА! СКАЧАННОЕ НЕ ЗАСЧИТЫВАЕТСЯ! Золото
Дата: Зарегистрирован   [ Тип: внутренний ] Как тут cкачать?
MAGNET ссылка
MAGNET ссылка


Скачать .torrent

18 KB

Статус: проверено DHT
Скачан: торрент - 50 раз, раздача полностью - 4 раз
Размер: 3,45 GB
Оценка:  4 (Голосов: 1)
Поблагодарили: 3
Поделиться ссылкой на эту раздачу с друзьями:
В контактеFacebookОдноклассникиTwitterLivejournalМой МирLiveinternet
 

 
Показать сообщения:    


Вы не можете начинать темы
Вы не можете отвечать на сообщения
Вы не можете редактировать свои сообщения
Вы не можете удалять свои сообщения
Вы не можете голосовать в опросах
Вы не можете прикреплять файлы к сообщениям
Вы можете скачивать файлы