Loading...
Error

Скачать Мыслить как преступник: За границей / Criminal Minds: Beyond Borders (сезон 01) (Роб Бэйли и др.) [2016, криминал, драма, WEB-DL] [720р] [DVO (Sunshine Studio)] торрент без регистрации

 
Статистика раздачи
Размер:  13,29 GB   |    Скачан:  54 раза
Сидов:  1  [  0 KB/s  ]  
 
Автор Сообщение

МихаНЕзатор

[] 

Название: Мыслить как преступник: За границей
Оригинальное название: Criminal Minds: Beyond Borders
Год выхода: 2016
Жанр: криминал, драма
Режиссеры: Роб Бэйли, Мэтт Эрл Бисли, Лаура Белси

В ролях: Гэри Синиз, Энни Функе, Алана де ла Гарса, Дэниэл Хенни, Тайлер Джеймс Уильямс, Афшин Оляи и др.

Описание сериала: Спин-офф детективного сериала "Мыслить как преступник". Сериал рассказывает об элитной команде из ФБР, занимающейся расследованием преступлений за пределами США, в которые вовлечены американские граждане.

Страна: США
Производство: ABC Studios, CBS Television Studios
Продолжительность: ~ 00:40:00
Перевод: Любительский (двухголосый) Sunshine Studio
Субтитры: Отсутствуют
Реклама: Присутствует

Релиз группа:

Файл
Формат: MKV
Качество: WEB-DL 720р
Видео: MPEG-4 AVC, ~ 4000 Кбит/с, 1280x720
Аудио: 48 kHz, AC3 Dolby Digital, 2/0 (L,R) ch, ~192 kbps

АНОНСЫ ПОПУЛЯРНЫХ РАЗДАЧ


Торрент обновлён, добавлена 13-я серия!
Формат : Matroska
Версия формата : Version 2
Размер файла : 1,21 Гбайт
Продолжительность : 42 м.
Общий поток : 4103 Кбит/сек
Дата кодирования : UTC 2016-03-25 13:37:48
Программа кодирования : mkvmerge v4.9.1 ('Ich will') built on Sep 21 2011 17:48:11
Библиотека кодирования : libebml v1.2.1 + libmatroska v1.2.0

Видео
Идентификатор : 1
Формат : AVC
Формат/Информация : Advanced Video Codec
Профиль формата : High@L3
Параметр CABAC формата : Нет
Параметр ReFrames формата : 1 кадр
Режим смешивания : Header stripping
Идентификатор кодека : V_MPEG4/ISO/AVC
Продолжительность : 42 м.
Битрейт : 4000 Кбит/сек
Ширина : 1280 пикселей
Высота : 720 пикселей
Соотношение сторон : 16:9
Режим частоты кадров : Постоянный
Частота кадров : 29,970 (29970/1000) кадров/сек
Цветовое пространство : YUV
Субдискретизация насыщенности : 4:2:0
Битовая глубина : 8 бит
Тип развёртки : Прогрессивная
Бит/(Пиксели*Кадры) : 0.145
Размер потока : 1,13 Гбайт (93%)
Библиотека кодирования : x264 core 80 r1378+57 6f6b50a
Настройки программы : cabac=0 / ref=1 / deblock=1:0:0 / analyse=0x3:0x113 / me=hex / subme=7 / psy=1 / psy_rd=1.0:0.0 / mixed_ref=0 / me_range=16 / chroma_me=1 / trellis=0 / 8x8dct=1 / cqm=0 / deadzone=21,11 / fast_pskip=1 / chroma_qp_offset=-2 / threads=6 / sliced_threads=0 / nr=0 / decimate=1 / mbaff=0 / constrained_intra=0 / bframes=0 / wpredp=2 / keyint=250 / keyint_min=25 / scenecut=40 / rc_lookahead=40 / rc=abr / mbtree=1 / bitrate=4000 / ratetol=1.0 / qcomp=0.60 / qpmin=10 / qpmax=51 / qpstep=4 / ip_ratio=1.40 / aq=1:1.00
Default : Да
Forced : Нет

Аудио
Идентификатор : 2
Формат : AC-3
Формат/Информация : Audio Coding 3
Расширение режима : CM (complete main)
Параметр Endianness формата : Big
Режим смешивания : Header stripping
Идентификатор кодека : A_AC3
Продолжительность : 42 м.
Вид битрейта : Постоянный
Битрейт : 192 Кбит/сек
Каналы : 2 канала
Расположение каналов : Front: L R
Частота : 48,0 КГц
Частота кадров : 31,250 кадров/сек (1536 spf)
Метод сжатия : С потерями
Размер потока : 58,0 Мбайт (5%)
Default : Да
Forced : Нет
Внимание! Раздача ведётся путём добавления новых серий; при каждом добавлении создаётся новый торрент. Чтобы начать докачку новой серии, пользователям необходимо сделать следующее:
(1) остановить скачивание,
(2) удалить старый торрент у себя из клиента (старые серии удалять не надо),
(3) скачать новый торрент и запустить его у себя в клиенте вместо старого, при этом указать клиенту путь в старую папку куда и должно происходить скачивание новых серий.

Ваш клиент при этом должен произвести хеширование (проверку) старой папки (если не производит сам - помогите ему сделать это), и будет докачивать только те серии которых у вас ещё нет. Старые серии при этом не удаляются, а продолжают раздаваться!

Eсли вы уже удалили старые серии, то предотвратить повторную закачку старых серий можно, отжав галочку в соответсвующих местах при запуске нового торрента. По возможности, желательно не удалять старые серии как можно дольше чтобы релизёр не столько продолжал раздавать старые серии, а смог сконцентрироваться на новых.



Скачать Мыслить.как.преступник.За.границей.Criminal.Minds.Beyond.Borders.(сезон.01).(Роб.Бэйли.и.др.).[2016.криминал.драма.WEB-DL].[720р].[DVO.(Sunshine.Studio)].torrent без регистрации
Золото ЗОЛОТАЯ РАЗДАЧА! СКАЧАННОЕ НЕ ЗАСЧИТЫВАЕТСЯ! Золото
Дата: Зарегистрирован   [ Тип: внутренний ] Как тут cкачать?
MAGNET ссылка
MAGNET ссылка


Скачать .torrent

35 KB

Статус: проверено DHT
Скачан: торрент - 54 раз, раздача полностью - 3 раз
Размер: 13,29 GB
Оценка:  5 (Голосов: 1)
Поблагодарили: 2
Поделиться ссылкой на эту раздачу с друзьями:
В контактеFacebookОдноклассникиTwitterLivejournalМой МирLiveinternet
 

 
Показать сообщения:    


Вы не можете начинать темы
Вы не можете отвечать на сообщения
Вы не можете редактировать свои сообщения
Вы не можете удалять свои сообщения
Вы не можете голосовать в опросах
Вы не можете прикреплять файлы к сообщениям
Вы можете скачивать файлы