Loading...
Error

Скачать Доктор Джекилл и Мисс Хайд / Dr. Jekyll and Ms. Hyde (Дэвид Прайс / David Price) [1995, Комедия, DVDRip] [DVO] + 2x[MVO] (РТР, ТНТ) + [Sub] (Rus) + [Orig] (Eng) торрент без регистрации

 
Статистика раздачи
Размер:  1,6 GB   |    Скачан:  56 раз
Сидов:  1  [  0 KB/s  ]  
 
Автор Сообщение

leon030982

[] 

Доктор Джекилл и Мисс Хайд / Dr. Jekyll and Ms. Hyde


Год выпуска: 1995
Страна: Великобритания, США, Канада
Жанр: Комедия
Продолжительность: 01:26:35
Перевод 1: Профессиональный (двухголосый закадровый)
Перевод 2: Профессиональный (многоголосый закадровый) РТР
Перевод 3: Профессиональный (многоголосый закадровый) ТНТ
Cубтитры: русские
Оригинальная аудиодорожка: английский отдельным файлом

Режиссер: Дэвид Прайс / David Price

В ролях: Шон Янг, Тим Дейли, Лизетт Энтони, Стивен Тоболовски, Харви Фирштейн, Теа Видале, Джереми Пивен, Полли Берген, Стивен Шеллен, Шина Ларкин


Дела у Ричарда Джекса идут не важно. Никто не признает, что он — гениальный биолог. Ричард мечтает о крупном открытии, которое изменит его жизнь. Когда к нему в руки попадает генетическая формула его знаменитого предка доктора Джекилла, Ричард добавляет в нее кое-что от себя и, выпив полученное зелье, превращается… в коварную и обольстительную Хелен Хайд. Красотка Хелен тут же начинает строить глазки начальству, и дело принимает опасный оборот. Ричард должен совершить невозможное: отвергнуть ухаживания своего босса, найти противоядие от собственного открытия и убедить невесту, что он не извращенец. Раз за разом Ричард пытается одолеть Хелен, но в результате его эксперимент все больше выходит из-под контроля…

СЭМПЛ

Качество видео: DVDRip
Формат видео: AVI
Видео: 688x528 (1.30:1), 25 fps, XviD build 73 ~1786 kbps avg, 0.20 bit/pixel
Аудио 1: 48 kHz, AC3 Dolby Digital, 2/0 (L,R) ch, ~224 kbps [DVO]
Аудио 2: 48 kHz, AC3 Dolby Digital, 2/0 (L,R) ch, ~192 kbps - [РТР]
Аудио 3: 48 kHz, AC3 Dolby Digital, 2/0 (L,R) ch, ~192 kbps - [ТНТ]
Аудио 4: 48 kHz, AC3 Dolby Digital, 2/0 (L,R) ch, ~224 kbps [Eng] отдельным файлом

Релиз -- Dreven

Цитата:

За оцифровку VHS с переводом РТР спасибо серый75, синхронизировал Dreven.
За оцифровку VHS с переводом ТНТ спасибо sera1, синхронизировал JUSTKANT.
General
Complete name : D:\Dr. Jekyll and Ms. Hyde.avi
Format : AVI
Format/Info : Audio Video Interleave
File size : 1.46 GiB
Duration : 1h 26mn
Overall bit rate : 2 416 Kbps
Writing application : VirtualDubMod 1.5.10.3 (build 2550/release)
Writing library : VirtualDubMod build 2550/release
Video
ID : 0
Format : MPEG-4 Visual
Format profile : Advanced Simple@L5
Format settings, BVOP : 1
Format settings, QPel : No
Format settings, GMC : No warppoints
Format settings, Matrix : Custom
Codec ID : XVID
Codec ID/Hint : XviD
Duration : 1h 26mn
Bit rate : 1 788 Kbps
Width : 688 pixels
Height : 528 pixels
Display aspect ratio : 4:3
Frame rate : 25.000 fps
Color space : YUV
Chroma subsampling : 4:2:0
Bit depth : 8 bits
Scan type : Progressive
Compression mode : Lossy
Bits/(Pixel*Frame) : 0.197
Stream size : 1.08 GiB (74%)
Writing library : XviD 73
Audio #1
ID : 1
Format : AC-3
Format/Info : Audio Coding 3
Mode extension : CM (complete main)
Format settings, Endianness : Big
Codec ID : 2000
Duration : 1h 26mn
Bit rate mode : Constant
Bit rate : 224 Kbps
Channel(s) : 2 channels
Channel positions : Front: L R
Sampling rate : 48.0 KHz
Compression mode : Lossy
Stream size : 139 MiB (9%)
Alignment : Split accross interleaves
Interleave, duration : 40 ms (1.00 video frame)
Interleave, preload duratio : 500 ms
Audio #2
ID : 2
Format : AC-3
Format/Info : Audio Coding 3
Mode extension : CM (complete main)
Format settings, Endianness : Big
Codec ID : 2000
Duration : 1h 26mn
Bit rate mode : Constant
Bit rate : 192 Kbps
Channel(s) : 2 channels
Channel positions : Front: L R
Sampling rate : 48.0 KHz
Compression mode : Lossy
Stream size : 119 MiB (8%)
Alignment : Split accross interleaves
Interleave, duration : 40 ms (1.00 video frame)
Interleave, preload duratio : 500 ms
Title : РТР
Audio #3
ID : 3
Format : AC-3
Format/Info : Audio Coding 3
Mode extension : CM (complete main)
Format settings, Endianness : Big
Codec ID : 2000
Duration : 1h 26mn
Bit rate mode : Constant
Bit rate : 192 Kbps
Channel(s) : 2 channels
Channel positions : Front: L R
Sampling rate : 48.0 KHz
Compression mode : Lossy
Stream size : 119 MiB (8%)
Alignment : Split accross interleaves
Interleave, duration : 40 ms (1.00 video frame)
Interleave, preload duratio : 500 ms
Title : ТНТ



Скачать Доктор.Джекилл.и.Мисс.Хайд.Dr.Jekyll.and.Ms.Hyde.(Дэвид.Прайс.David.Price).[1995.Комедия.DVDRip].[DVO].+.2x[MVO].(РТР.ТНТ).+.[Sub].(Rus).+.[Orig].(Eng).torrent без регистрации
Золото ЗОЛОТАЯ РАЗДАЧА! СКАЧАННОЕ НЕ ЗАСЧИТЫВАЕТСЯ! Золото
Дата: Зарегистрирован   [ Тип: внутренний ] Как тут cкачать?
MAGNET ссылка
MAGNET ссылка


Скачать .torrent

17 KB

Статус: проверено DHT
Скачан: торрент - 56 раз, раздача полностью - 1 раз
Размер: 1,6 GB
Оценка:  - (Голосов: 0)
Поблагодарили: 1
Поделиться ссылкой на эту раздачу с друзьями:
В контактеFacebookОдноклассникиTwitterLivejournalМой МирLiveinternet
 

 
Показать сообщения:    


Вы не можете начинать темы
Вы не можете отвечать на сообщения
Вы не можете редактировать свои сообщения
Вы не можете удалять свои сообщения
Вы не можете голосовать в опросах
Вы не можете прикреплять файлы к сообщениям
Вы можете скачивать файлы