Loading...
Error

Скачать Счастливчик / Stan Lee's Lucky Man (02x01-07 из 10) (Джон Ист, Брайан Келли) [2017, фантастика, боевик, HDTVrip] [720p] [MVO (OMSKBIRD)]+[Eng] торрент без регистрации

Статистика раздачи
Размер:  7,15 GB   |    Скачан:  63 раза
Сидов:  2  [  0 KB/s  ]   Личеров:  7  [  0 KB/s  ]  
 
 
 
Автор Сообщение

МихаНЕзатор

[] 

Информация о фильме
Название: Счастливчик Стэна Ли
Оригинальное название: Stan Lee's Lucky Man
Год выхода: 2017
Жанр: Фантастика, боевик
Режиссер: Джон Ист, Брайан Келли

В ролях: Джеймс Несбитт, Стефен Хэйгэн, Джозеф Гатт, Лиза Диллон, Ли Николас Харрис, Мэтт Таунсенд, Эндрю Ли Поттс, Пол Блэкуэлл, Гарри Марриотт, Лаура Свифт и др.

О фильме: Действие сериала будет происходить в Лондоне. Главный герой – полицейский, чей главный минус – пристрастие к азартным играм. До добра это не довело – во-первых, его оставили жена с ребенком, во-вторых, у героя образовался солидный долг перед мафией. Как жить дальше? Ответ подсказывает некий волшебный браслет, который «коп» случайно находит…



Страна: Великобритания
Продолжительность: ~ 44 мин. серия
Перевод: Любительский (многоголосый закадровый) | OMSKBIRD

Файл
Кодек: AVC/x264
Качество: HDTVrip 720p
Видео: AVC, 1280x720 (16:9), 23.976 fps, ~ 3000 kbps
Звук: Аудио rus: AC-3, 48 KHz, 2 ch, 192 kbps | OMSKBIRD records

АНОНСЫ ПОПУЛЯРНЫХ РАЗДАЧ


Торрент обновлён, добавлена 7-я серия!
General
Unique ID : 247257319670640170228659817922830844588 (0xBA0407104953EA3FA9AF88280614C2AC)
Complete name : F:Мои ДокументыВидеоРАЗДАЧИЛаки МэнLucky Man S02 HDTVRip 720p (OMSKBIRD)Lucky Man S02E01 HDTVRip 720p (OMSKBIRD).mkv
Format : Matroska
Format version : Version 2
File size : 1.02 GiB
Duration : 46mn 12s
Overall bit rate : 3 167 Kbps
Encoded date : UTC 2017-02-26 14:04:49
Writing application : mkvmerge v4.0.0 ('The Stars were mine') сборка от Jun 6 2010 16:18:42
Writing library : libebml v1.0.0 + libmatroska v1.0.0

Video
ID : 1
Format : AVC
Format/Info : Advanced Video Codec
Format profile : Main@L3.2
Format settings, CABAC : Yes
Format settings, ReFrames : 3 frames
Codec ID : V_MPEG4/ISO/AVC
Duration : 46mn 12s
Bit rate : 2 912 Kbps
Width : 1 280 pixels
Height : 720 pixels
Display aspect ratio : 16:9
Frame rate : 25.000 fps
Standard : PAL
Color space : YUV
Chroma subsampling : 4:2:0
Bit depth : 8 bits
Scan type : Progressive
Bits/(Pixel*Frame) : 0.126
Stream size : 963 MiB (92%)
Language : English
Default : Yes
Forced : No
Color primaries : BT.709-5, BT.1361, IEC 61966-2-4, SMPTE RP177
Transfer characteristics : BT.709-5, BT.1361
Matrix coefficients : BT.709-5, BT.1361, IEC 61966-2-4 709, SMPTE RP177

Audio
ID : 2
Format : AC-3
Format/Info : Audio Coding 3
Mode extension : CM (complete main)
Format settings, Endianness : Big
Codec ID : A_AC3
Duration : 46mn 12s
Bit rate mode : Constant
Bit rate : 192 Kbps
Channel(s) : 2 channels
Channel positions : Front: L R
Sampling rate : 48.0 KHz
Bit depth : 16 bits
Compression mode : Lossy
Stream size : 63.5 MiB (6%)
Default : Yes
Forced : No
Перевод • Николай Исаков
• Роли озвучивали: Андрей Стакионис, Павел Ярощик, Ирина Воронова
Звукорежиссер • Павел Квентов
Постер • Ксения Просветова
Релиз подготовил • Gater
Внимание! Раздача ведётся путём добавления новых серий; при каждом добавлении создаётся новый торрент. Чтобы начать докачку новой серии, пользователям необходимо сделать следующее:
Остановить скачивание.
Удалить старый торрент у себя из клиента (старые серии удалять не надо).
Скачать новый торрент и запустить его у себя в клиенте вместо старого, при этом указать клиенту путь в старую папку куда и должно происходить скачивание новых серий.
Ваш клиент при этом должен произвести хеширование (проверку) старой папки (если не производит сам - помогите ему сделать это), и будет докачивать только те серии которых у вас ещё нет. Старые серии при этом не удаляются, а продолжают раздаваться!
Eсли вы уже удалили старые серии, то предотвратить повторную закачку старых серий можно, отжав галочку в соответсвующих местах при запуске нового торрента. По возможности, желательно не удалять старые серии как можно дольше чтобы релизёр не столько продолжал раздавать старые серии, а смог сконцентрироваться на новых.




Скачать Счастливчик.Stan.Lee's.Lucky.Man.(02x01-07.из.10).(Джон.Ист.Брайан.Келли).[2017.фантастика.боевик.HDTVrip].[720p].[MVO.(OMSKBIRD)]+[Eng].torrent без регистрации
Золото ЗОЛОТАЯ РАЗДАЧА! СКАЧАННОЕ НЕ ЗАСЧИТЫВАЕТСЯ! Золото
Дата: Зарегистрирован   [ Тип: внешний ] Как тут cкачать?
MAGNET ссылка
MAGNET ссылка


Скачать .torrent

19 KB

Статус: проверено DHT
Скачан: торрент - 63 раз, раздача полностью - 1 раз
Размер: 7,15 GB
Оценка:  4 (Голосов: 1)
Поблагодарили: 2
Поделиться ссылкой на эту раздачу с друзьями:
В контактеFacebookОдноклассникиTwitterLivejournalМой МирLiveinternet
 

 
Показать сообщения:    


Вы не можете начинать темы
Вы не можете отвечать на сообщения
Вы не можете редактировать свои сообщения
Вы не можете удалять свои сообщения
Вы не можете голосовать в опросах
Вы не можете прикреплять файлы к сообщениям
Вы можете скачивать файлы