Loading...
Error

Скачать Версаль / Versailles (01-10 из 10) (Дэниэл Роби и др.) [2015, драма, биография, исторический, BDRip] [1080i] [MVO (Первый Канал)]+[Eng]+[Syb Eng] торрент без регистрации

 
Статистика раздачи
Размер:  38,88 GB   |    Скачан:  36 раз
Сидов:  1  [  0 KB/s  ]  
 
Автор Сообщение

МихаНЕзатор

[] 

Информация о фильме
Название: Версаль
Оригинальное название: Versailles
Год выхода: 2015
Жанр: Драма, биография, исторический
Режиссер: Дэниэл Роби, Кристоф Шреве, Жалиль Леспер

В ролях: Джордж Благден, Александр Влахос, Тиг Раньян, Стюарт Боуман, Ивэн Уильямс, Анна Брюстер, Лиззи Броше, Анатоль Таубман, Стив Кьюмин, Элиза Ласовски, Джилли Гилкрист, Джо Шеридан, Амира Казар, Алексис Михалик, Пип Торренс, Питер Хадсон, Джеффри Бейтман, Доминик Блан, Руперт Ванситтарт

О фильме: Людовик XIV взошел на престол, когда ему было 4 года. Многие годы Францией управлял совет министров, возглавляемый его матерью. Теперь она мертва и у знати с каждым днем все больше власти. Чтобы выжить, Людовику необходимо с чистого листа выстроить новую власть, вдалеке от Парижа. В деревушке под названием...Версаль.



Страна: Франция, Канада, Capa Drama, Incendo Productions, Zodiak Media Group
Продолжительность: ~ 00:55:00
Перевод: профессиональный (многоголосый закадровый) - Первый канал

Файл
Качество: BDRip 1080p
Формат: MKV
Видео: 1920x1080 (16:9) | X264/MPEG4-AVC | ~8500 kbps | 25.000 fps
Аудио 1: AC3 | 48 KHz | 2.0 (Front: L R) | ~192 kbps [RUS]
Аудио 2: DTS | 48 KHz | 5.1 (Front: L С R Side: L R) + LFE | ~1509 kbps [ENG]
Субтитры: английские
• Релиз: CasStudio || Запись звука: Justin || Синхронизация звука: messafan ||

АНОНСЫ ПОПУЛЯРНЫХ РАЗДАЧ


Торрент обновлён, добавлена 10-я серия!
Общее
Уникальный идентификатор : 175310013584838396496992059785453234328 (0x83E37B002C6A3A599E7CB7069B23E898)
Полное имя : X:Versailles.2015.S01.1080p.BluRay.Rus.Eng.CasStudioVersailles.2015.S01E01.1080p.BluRay.Rus.Eng.CasStudio.mkv
Формат : Matroska
Версия формата : Version 4 / Version 2
Размер файла : 3,87 Гбайт
Продолжительность : 54 м.
Общий поток : 10,2 Мбит/сек
Название фильма : Versailles 2015 01x01 - release by messafan for CasStudio.TV
Дата кодирования : UTC 2016-03-06 01:09:30
Программа кодирования : mkvmerge v6.7.0 ('Back to the Ground') 64bit built on Jan 8 2014 15:10:52
Библиотека кодирования : libebml v1.3.0 + libmatroska v1.4.1

Видео
Идентификатор : 1
Формат : AVC
Формат/Информация : Advanced Video Codec
Профиль формата : High@L4.1
Параметр CABAC формата : Да
Параметр ReFrames формата : 4 кадра
Идентификатор кодека : V_MPEG4/ISO/AVC
Продолжительность : 54 м.
Битрейт : 8476 Кбит/сек
Ширина : 1920 пикселей
Высота : 1080 пикселей
Соотношение сторон : 16:9
Режим частоты кадров : Постоянный
Частота кадров : 25,000 кадров/сек
Цветовое пространство : YUV
Субдискретизация насыщенности : 4:2:0
Битовая глубина : 8 бит
Тип развёртки : Прогрессивная
Бит/(Пиксели*Кадры) : 0.164
Размер потока : 3,15 Гбайт (81%)
Заголовок : Versailles.2015.S01E01.MULTi.1080p.BluRay.x264-SH0W
Библиотека кодирования : x264 core 148 r2638 7599210
Настройки программы : cabac=1 / ref=4 / deblock=1:0:0 / analyse=0x3:0x113 / me=umh / subme=8 / psy=1 / psy_rd=1.00:0.00 / mixed_ref=1 / me_range=16 / chroma_me=1 / trellis=1 / 8x8dct=1 / cqm=0 / deadzone=21,11 / fast_pskip=1 / chroma_qp_offset=-2 / threads=8 / lookahead_threads=1 / sliced_threads=0 / nr=0 / decimate=1 / interlaced=0 / bluray_compat=0 / constrained_intra=0 / bframes=3 / b_pyramid=2 / b_adapt=2 / b_bias=0 / direct=3 / weightb=1 / open_gop=0 / weightp=2 / keyint=250 / keyint_min=25 / scenecut=40 / intra_refresh=0 / rc_lookahead=50 / rc=2pass / mbtree=1 / bitrate=8476 / ratetol=1.0 / qcomp=0.60 / qpmin=0 / qpmax=69 / qpstep=4 / cplxblur=20.0 / qblur=0.5 / ip_ratio=1.40 / aq=1:1.00
Default : Да
Forced : Нет

Аудио #1
Идентификатор : 2
Формат : AC-3
Формат/Информация : Audio Coding 3
Расширение режима : CM (complete main)
Параметр Endianness формата : Big
Идентификатор кодека : A_AC3
Продолжительность : 54 м.
Вид битрейта : Постоянный
Битрейт : 192 Кбит/сек
Каналы : 2 канала
Расположение каналов : Front: L R
Частота : 48,0 КГц
Метод сжатия : С потерями
Размер потока : 74,8 Мбайт (2%)
Заголовок : Rus 1tv DD2.0 @ 192kbps
Язык : Russian
Default : Да
Forced : Нет

Аудио #2
Идентификатор : 3
Формат : DTS
Формат/Информация : Digital Theater Systems
Режим : 16
Параметр Endianness формата : Big
Идентификатор кодека : A_DTS
Продолжительность : 54 м.
Вид битрейта : Постоянный
Битрейт : 1509 Кбит/сек
Каналы : 6 каналов
Расположение каналов : Front: L C R, Side: L R, LFE
Частота : 48,0 КГц
Битовая глубина : 24 бит
Метод сжатия : С потерями
Размер потока : 588 Мбайт (15%)
Заголовок : English DTS5.1 @ 1510kbps
Язык : English
Default : Нет
Forced : Нет

Текст
Идентификатор : 4
Формат : UTF-8
Идентификатор кодека : S_TEXT/UTF8
Идентификатор кодека/Информация : UTF-8 Plain Text
Заголовок : English
Язык : English
Default : Нет
Forced : Нет

Меню
00:00:00.000 : fr:Chapter 1
00:09:01.280 : fr:Chapter 2
00:09:54.120 : fr:Chapter 3
00:28:01.440 : fr:Chapter 4
00:40:41.439 : fr:Chapter 5
00:53:41.720 : fr:Chapter 6



Скачать Версаль.Versailles.(01-10.из.10).(Дэниэл.Роби.и.др.).[2015.драма.биография.исторический.BDRip].[1080i].[MVO.(Первый.Канал)]+[Eng]+[Syb.Eng].torrent без регистрации
Золото ЗОЛОТАЯ РАЗДАЧА! СКАЧАННОЕ НЕ ЗАСЧИТЫВАЕТСЯ! Золото
Дата: Зарегистрирован   [ Тип: внутренний ] Как тут cкачать?
MAGNET ссылка
MAGNET ссылка


Скачать .torrent

196 KB

Статус: проверено DHT
Скачан: торрент - 36 раз, раздача полностью - 32 раз
Размер: 38,88 GB
Оценка:  - (Голосов: 0)
Поблагодарили: 0
Поделиться ссылкой на эту раздачу с друзьями:
В контактеFacebookОдноклассникиTwitterLivejournalМой МирLiveinternet
 

 
Показать сообщения:    


Вы не можете начинать темы
Вы не можете отвечать на сообщения
Вы не можете редактировать свои сообщения
Вы не можете удалять свои сообщения
Вы не можете голосовать в опросах
Вы не можете прикреплять файлы к сообщениям
Вы можете скачивать файлы