Loading...
Error

Скачать Городские пижоны / City Slickers (Рон Андервуд) [1991, драма, комедия, приключения, вестерн, BDRip-AVC] [MVO]+[DVO]x2+[AVO]x2+[Sub] торрент без регистрации

 
Статистика раздачи
Размер:  3,2 GB   |    Скачан:  45 раз
Сидов:  1  [  0 KB/s  ]  
 
Автор Сообщение

Marsianka

[] 

Производство: США, Castle Rock Entertainment, Face Productions, Nelson Entertainment, Sultan Entertainment
Жанр: Приключения, Вестерн, Драма, Комедия
Информация о фильме
Название: Городские пижоны
Оригинальное название: City Slickers
Год выхода: 1991
Жанр: драма, комедия, приключения, вестерн
Режиссер: Рон Андервуд
В ролях: Билли Кристал, Дэниел Стерн, Бруно Кёрби, Патриция Уэттиг, Хелен Слейтер, Джек Пэланс, Ноубл Уиллингэм, Трейси Уолтер, Джош Мостел, Дэвид Пэймер

Описание:
Скинув на пару недель со своих плеч профессиональные обязанности и семейные заботы, Митч Роббинс и два его друга подряжаются перегнать лошадей с одного конца Америки на другой. А если учесть, что о седлах, подпругах и лассо герои имеют весьма отдаленное представление, то, конечно, впереди их ждут смешные, захватывающие приключения. А иногда драматические и опасные.



Продолжительность: 01:53:53
Качество видео: BDRip-AVC
Перевод: Профессиональный многоголосый, профессиональный двухголосый, авторский
Язык субтитров: Английский
Вид субтитров: Вшитые отключаемые

Видео: AVC, 1024x556 (16:9), 23.976 fps, 2 549 Kbps (0.187 bit/pixel)
Аудио #1: AC-3, 48.0 KHz, 2 ch, 192 Kbps, CBR - многоголосый закадровый
Аудио #2: AC-3, 48.0 KHz, 2 ch, 192 Kbps, CBR - двухголосый - SDI Media
Аудио #3: AC-3, 48.0 KHz, 2 ch, 192 Kbps, CBR - двухголосый закадровый) - НТВ+
Аудио #4: AC-3, 48.0 KHz, 6 ch, 448 Kbps, CBR - авторский В. Дохалов
Аудио #5: AC-3, 48.0 KHz, 6 ch, 448 Kbps, CBR - авторский В. Горчаков
[code]
Формат : Matroska
Версия формата : Version 2
Размер файла : 3,20 Гбайт
Продолжительность : 1 ч. 53 м.
Общий поток : 4023 Кбит/сек
Название фильма : City Slickers (1991)
Дата кодирования : UTC 2015-12-30 00:03:07
Программа кодирования : mkvmerge v5.3.0 ('I could have danced') built on Feb 9 2012 10:38:07
Библиотека кодирования : libebml v1.2.3 + libmatroska v1.3.0
Attachment : Yes

Видео
Идентификатор : 1
Формат : AVC
Формат/Информация : Advanced Video Codec
Профиль формата : High@L4.1
Параметр CABAC формата : Да
Параметр ReFrames формата : 9 кадров
Идентификатор кодека : V_MPEG4/ISO/AVC
Продолжительность : 1 ч. 53 м.
Битрейт : 2549 Кбит/сек
Ширина : 1024 пикселя
Высота : 556 пикселей
Соотношение сторон : 1,85:1
Режим частоты кадров : Постоянный
Частота кадров : 23,976 кадра/сек
Цветовое пространство : YUV
Субдискретизация насыщенности : 4:2:0
Битовая глубина : 8 бит
Тип развёртки : Прогрессивная
Бит/(Пиксели*Кадры) : 0.187
Размер потока : 1,97 Гбайт (61%)
Библиотека кодирования : x264 core 146 r2538 121396c
Настройки программы : cabac=1 / ref=9 / deblock=1:-3:-3 / analyse=0x3:0x133 / me=umh / subme=10 / psy=1 / psy_rd=1.00:0.15 / mixed_ref=1 / me_range=32 / chroma_me=1 / trellis=2 / 8x8dct=1 / cqm=0 / deadzone=21,11 / fast_pskip=0 / chroma_qp_offset=-3 / threads=12 / lookahead_threads=2 / sliced_threads=0 / nr=0 / decimate=1 / interlaced=0 / bluray_compat=0 / constrained_intra=0 / bframes=8 / b_pyramid=2 / b_adapt=2 / b_bias=0 / direct=3 / weightb=1 / open_gop=0 / weightp=2 / keyint=240 / keyint_min=23 / scenecut=40 / intra_refresh=0 / rc=2pass / mbtree=0 / bitrate=2549 / ratetol=1.0 / qcomp=0.60 / qpmin=0 / qpmax=69 / qpstep=4 / cplxblur=20.0 / qblur=0.5 / ip_ratio=1.40 / pb_ratio=1.30 / aq=2:0.70
Язык : English
Default : Да
Forced : Нет

Аудио #1
Идентификатор : 2
Формат : AC-3
Формат/Информация : Audio Coding 3
Расширение режима : CM (complete main)
Параметр Endianness формата : Big
Идентификатор кодека : A_AC3
Продолжительность : 1 ч. 53 м.
Вид битрейта : Постоянный
Битрейт : 192 Кбит/сек
Каналы : 2 канала
Расположение каналов : Front: L R
Частота : 48,0 КГц
Битовая глубина : 16 бит
Метод сжатия : С потерями
Размер потока : 156 Мбайт (5%)
Заголовок : Профессиональный (многоголосый закадровый) - ТВ5
Язык : Russian
Default : Да
Forced : Нет

Аудио #2
Идентификатор : 3
Формат : AC-3
Формат/Информация : Audio Coding 3
Расширение режима : CM (complete main)
Параметр Endianness формата : Big
Идентификатор кодека : A_AC3
Продолжительность : 1 ч. 53 м.
Вид битрейта : Постоянный
Битрейт : 192 Кбит/сек
Каналы : 2 канала
Расположение каналов : Front: L R
Частота : 48,0 КГц
Битовая глубина : 16 бит
Метод сжатия : С потерями
Размер потока : 156 Мбайт (5%)
Заголовок : Профессиональный (двухголосый закадровый) - SDI Media
Язык : Russian
Default : Нет
Forced : Нет

Аудио #3
Идентификатор : 4
Формат : AC-3
Формат/Информация : Audio Coding 3
Расширение режима : CM (complete main)
Параметр Endianness формата : Big
Идентификатор кодека : A_AC3
Продолжительность : 1 ч. 53 м.
Вид битрейта : Постоянный
Битрейт : 192 Кбит/сек
Каналы : 2 канала
Расположение каналов : Front: L R
Частота : 48,0 КГц
Битовая глубина : 16 бит
Метод сжатия : С потерями
Размер потока : 156 Мбайт (5%)
Заголовок : Профессиональный (двухголосый закадровый) - НТВ+
Язык : Russian
Default : Нет
Forced : Нет

Аудио #4
Идентификатор : 5
Формат : AC-3
Формат/Информация : Audio Coding 3
Расширение режима : CM (complete main)
Параметр Endianness формата : Big
Идентификатор кодека : A_AC3
Продолжительность : 1 ч. 53 м.
Вид битрейта : Постоянный
Битрейт : 448 Кбит/сек
Каналы : 6 каналов
Расположение каналов : Front: L C R, Side: L R, LFE
Частота : 48,0 КГц
Битовая глубина : 16 бит
Метод сжатия : С потерями
Размер потока : 365 Мбайт (11%)
Заголовок : Авторский В. Дохалов
Default : Нет
Forced : Нет

Аудио #5
Идентификатор : 6
Формат : AC-3
Формат/Информация : Audio Coding 3
Расширение режима : CM (complete main)
Параметр Endianness формата : Big
Идентификатор кодека : A_AC3
Продолжительность : 1 ч. 53 м.
Вид битрейта : Постоянный
Битрейт : 448 Кбит/сек
Каналы : 6 каналов
Расположение каналов : Front: L C R, Side: L R, LFE
Частота : 48,0 КГц
Битовая глубина : 16 бит
Метод сжатия : С потерями
Размер потока : 365 Мбайт (11%)
Заголовок : Авторский В. Горчаков
Язык : Russian
Default : Нет
Forced : Нет

Текст
Идентификатор : 7
Формат : UTF-8
Идентификатор кодека : S_TEXT/UTF8
Идентификатор кодека/Информация : UTF-8 Plain Text
Заголовок : Eng
Язык : English
Default : Нет
Forced : Нет

Меню
00:00:00.000 : en:00:00:00.000
00:02:59.930 : en:00:02:59.930
00:08:29.676 : en:00:08:29.676
00:14:13.436 : en:00:14:13.436
00:19:36.592 : en:00:19:36.592
00:23:23.068 : en:00:23:23.068
00:25:18.600 : en:00:25:18.600
00:27:40.534 : en:00:27:40.534
00:31:42.275 : en:00:31:42.275
00:32:59.477 : en:00:32:59.477
00:37:09.894 : en:00:37:09.894
00:39:21.734 : en:00:39:21.734
00:44:22.869 : en:00:44:22.869
00:48:24.860 : en:00:48:24.860
00:53:12.481 : en:00:53:12.481
00:57:47.756 : en:00:57:47.756
01:01:02.284 : en:01:01:02.284
01:04:19.147 : en:01:04:19.147
01:11:00.006 : en:01:11:00.006
01:15:40.661 : en:01:15:40.661
01:25:50.729 : en:01:25:50.729
01:29:40.041 : en:01:29:40.041
01:30:52.530 : en:01:30:52.530
01:35:01.529 : en:01:35:01.529
01:39:07.400 : en:01:39:07.400
01:42:29.935 : en:01:42:29.935
01:45:19.730 : en:01:45:19.730
01:49:29.313 : en:01:49:29.313



Скачать Городские.пижоны.City.Slickers.(Рон.Андервуд).[1991.драма.комедия.приключения.вестерн.BDRip-AVC].[MVO]+[DVO]x2+[AVO]x2+[Sub].torrent без регистрации
Золото ЗОЛОТАЯ РАЗДАЧА! СКАЧАННОЕ НЕ ЗАСЧИТЫВАЕТСЯ! Золото
Дата: Зарегистрирован   [ Тип: внутренний ] Как тут cкачать?
MAGNET ссылка
MAGNET ссылка


Скачать .torrent

17 KB

Статус: проверено DHT
Скачан: торрент - 45 раз, раздача полностью - 1 раз
Размер: 3,2 GB
Оценка:  - (Голосов: 0)
Поблагодарили: 1
Поделиться ссылкой на эту раздачу с друзьями:
В контактеFacebookОдноклассникиTwitterLivejournalМой МирLiveinternet
 

 
Показать сообщения:    


Вы не можете начинать темы
Вы не можете отвечать на сообщения
Вы не можете редактировать свои сообщения
Вы не можете удалять свои сообщения
Вы не можете голосовать в опросах
Вы не можете прикреплять файлы к сообщениям
Вы можете скачивать файлы