Loading...
Error

Скачать Городские пижоны 2: Легенда о золоте Кёрли / City Slickers II: The Legend Of Curly's Gold (Пол Вейланд) [1994, комедия, WEB-DLRip-AVC] [MVO]+[AVO]+[Sub] торрент без регистрации

 
Статистика раздачи
Размер:  2,45 GB   |    Скачан:  41 раз
Сидов:  1  [  0 KB/s  ]  
 
Автор Сообщение

Marsianka

[] 

Городские пижоны 2: Легенда о золоте Кёрли / City Slickers II: The Legend Of Curly's Gold (1994) WEB-DLRip-AVC
Производство: США, Castle Rock Entertainment, Columbia Pictures Corporation, Face Productions
Жанр: комедия

Режиссер: Пол Вейланд
Актеры: Билли Кристал, Дэниэл Штерн, Джон Ловиц, Джек Пэланс, Патриша Уеттинг, Прюитт Тейлор Винс, Билл МакКинни, Линдсэй Кристал, Бет Грант, Ноубл Уиллингэм, Джейн Медоуз, Дэвид Пэймер, Джош Мостел

Описание:
Директор популярной нью-йоркской радиостанции Митч Роббинс счастливо живет со своей женой, двумя очаровательными ребятишками и домашней коровой, пока не находит таинственную карту, на которой указано место, где спрятаны несметные сокровища. В сердце закоренелого горожанина просыпается извечная болезнь всех авантюристов — золотая лихорадка. Сразу забыв о жене, ребятишках и даже о корове, Митч со своим младшим братом и старым другом вскакивают в седло и отправляются на некогда Дикий Запад искать заветный клад. У городских пижонов нет времени на то, чтобы изучать первобытную загородную жизнь, тем более, что это так просто: захотел пить — просто подои… быка…



Продолжительность: 01:55:40
Качество видео: WEB-DLRip-AVC
Видео: AVC, 1024x576 (16:9), 23.976 fps, 2 649 Kbps (0.187 bit/pixel)
Перевод: Профессиональный (многоголосый, закадровый), авторский (одноголосый, закадровый) А.Михалёв
Язык субтитров: Английский
Вид субтитров: Вшитые, отключаемые
Аудио #1: AC-3, 48.0 KHz, 2 ch, 192 Kbps, CBR (Russian) - многоголосый (ОРТ)
Аудио #2: AC-3, 48.0 KHz, 2 ch, 192 Kbps, CBR (Russian) - авторский А.Михалёв

Формат : Matroska
Версия формата : Version 2
Размер файла : 2,45 Гбайт
Продолжительность : 1 ч. 55 м.
Общий поток : 3034 Кбит/сек
Дата кодирования : UTC 2015-12-29 16:01:40
Программа кодирования : mkvmerge v5.3.0 ('I could have danced') built on Feb 9 2012 10:38:07
Библиотека кодирования : libebml v1.2.3 + libmatroska v1.3.0
Attachment : Yes

Видео
Идентификатор : 1
Формат : AVC
Формат/Информация : Advanced Video Codec
Профиль формата : High@L4.1
Параметр CABAC формата : Да
Параметр ReFrames формата : 9 кадров
Идентификатор кодека : V_MPEG4/ISO/AVC
Продолжительность : 1 ч. 55 м.
Битрейт : 2649 Кбит/сек
Ширина : 1024 пикселя
Высота : 576 пикселей
Соотношение сторон : 16:9
Режим частоты кадров : Постоянный
Частота кадров : 23,976 кадра/сек
Цветовое пространство : YUV
Субдискретизация насыщенности : 4:2:0
Битовая глубина : 8 бит
Тип развёртки : Прогрессивная
Бит/(Пиксели*Кадры) : 0.187
Размер потока : 2,09 Гбайт (85%)
Библиотека кодирования : x264 core 146 r2538 121396c
Настройки программы : cabac=1 / ref=9 / deblock=1:-3:-3 / analyse=0x3:0x133 / me=umh / subme=10 / psy=1 / psy_rd=1.00:0.15 / mixed_ref=1 / me_range=32 / chroma_me=1 / trellis=2 / 8x8dct=1 / cqm=0 / deadzone=21,11 / fast_pskip=0 / chroma_qp_offset=-3 / threads=12 / lookahead_threads=2 / sliced_threads=0 / nr=0 / decimate=1 / interlaced=0 / bluray_compat=0 / constrained_intra=0 / bframes=8 / b_pyramid=2 / b_adapt=2 / b_bias=0 / direct=3 / weightb=1 / open_gop=0 / weightp=2 / keyint=240 / keyint_min=23 / scenecut=40 / intra_refresh=0 / rc=2pass / mbtree=0 / bitrate=2649 / ratetol=1.0 / qcomp=0.60 / qpmin=0 / qpmax=69 / qpstep=4 / cplxblur=20.0 / qblur=0.5 / ip_ratio=1.40 / pb_ratio=1.30 / aq=2:0.70
Язык : English
Default : Да
Forced : Нет

Аудио #1
Идентификатор : 2
Формат : AC-3
Формат/Информация : Audio Coding 3
Расширение режима : CM (complete main)
Параметр Endianness формата : Big
Идентификатор кодека : A_AC3
Продолжительность : 1 ч. 55 м.
Вид битрейта : Постоянный
Битрейт : 192 Кбит/сек
Каналы : 2 канала
Расположение каналов : Front: L R
Частота : 48,0 КГц
Битовая глубина : 16 бит
Метод сжатия : С потерями
Размер потока : 159 Мбайт (6%)
Заголовок : Профессиональный (многоголосый закадровый) ОРТ
Язык : Russian
Default : Да
Forced : Нет

Аудио #2
Идентификатор : 3
Формат : AC-3
Формат/Информация : Audio Coding 3
Расширение режима : CM (complete main)
Параметр Endianness формата : Big
Идентификатор кодека : A_AC3
Продолжительность : 1 ч. 55 м.
Вид битрейта : Постоянный
Битрейт : 192 Кбит/сек
Каналы : 2 канала
Расположение каналов : Front: L R
Частота : 48,0 КГц
Битовая глубина : 16 бит
Метод сжатия : С потерями
Размер потока : 159 Мбайт (6%)
Заголовок : Авторский (одноголосый закадровый) А. Михалев
Язык : Russian
Default : Нет
Forced : Нет

Текст
Идентификатор : 4
Формат : UTF-8
Идентификатор кодека : S_TEXT/UTF8
Идентификатор кодека/Информация : UTF-8 Plain Text
Заголовок : Eng
Язык : English
Default : Да
Forced : Нет

Меню
00:00:00.000 : en:Grabber of a dream.
00:03:04.000 : en:Credits.
00:05:51.000 : en:Big 4-0.
00:09:16.000 : en:Phone foolery.
00:15:09.000 : en:Commuting dead.
00:17:21.000 : en:Glen and other irritants.
00:22:13.000 : en:Out of the hat.
00:26:59.000 : en:Taking care of Mitch.
00:32:18.000 : en:Nuts over gold.
00:35:20.000 : en:Watch where you squat.
00:40:10.000 : en:Map handlers.
00:43:43.000 : en:Glen's occupations.
00:48:26.000 : en:Mitch really cares.
00:51:50.000 : en:Howdy, boys.
00:55:29.000 : en:Curly's brother.
00:58:50.000 : en:Partners.
01:04:24.000 : en:Catching our parents.
01:06:17.000 : en:Horsing around.
01:09:27.000 : en:Mitch to the rescue.
01:14:30.000 : en:Just trust me.
01:18:15.000 : en:Group hug.
01:22:15.000 : en:Unhappy pirate.
01:25:12.000 : en:Into the cave.
01:30:29.000 : en:Mitch on a roll.
01:34:02.000 : en:Treasure chest.
01:36:59.000 : en:Treasure snatchers.
01:39:44.000 : en:Not real.
01:43:15.000 : en:Figuring it out.
01:44:53.000 : en:We made it.
01:46:54.000 : en:Missing corner.
01:50:58.000 : en:End Credits.



Скачать Городские.пижоны.2.Легенда.о.золоте.Кёрли.City.Slickers.II.The.Legend.Of.Curly's.Gold.(Пол.Вейланд).[1994.комедия.WEB-DLRip-AVC].[MVO]+[AVO]+[Sub].torrent без регистрации
Золото ЗОЛОТАЯ РАЗДАЧА! СКАЧАННОЕ НЕ ЗАСЧИТЫВАЕТСЯ! Золото
Дата: Зарегистрирован   [ Тип: внутренний ] Как тут cкачать?
MAGNET ссылка
MAGNET ссылка


Скачать .torrent

13 KB

Статус: проверено DHT
Скачан: торрент - 41 раз, раздача полностью - 1 раз
Размер: 2,45 GB
Оценка:  - (Голосов: 0)
Поблагодарили: 0
Поделиться ссылкой на эту раздачу с друзьями:
В контактеFacebookОдноклассникиTwitterLivejournalМой МирLiveinternet
 

 
Показать сообщения:    


Вы не можете начинать темы
Вы не можете отвечать на сообщения
Вы не можете редактировать свои сообщения
Вы не можете удалять свои сообщения
Вы не можете голосовать в опросах
Вы не можете прикреплять файлы к сообщениям
Вы можете скачивать файлы