Loading...
Error

Скачать Филадельфийский Эксперимент / The Philadelphia Experiment (Стюарт Рэффил) [1984, фантастика, триллер, драма, приключения, биография, BDRip] [DVO (НТВ)] торрент без регистрации

 
Статистика раздачи
Размер:  1,46 GB   |    Скачан:  49 раз
Сидов:  1  [  0 KB/s  ]  
 
Автор Сообщение

Shara

[] 

Филадельфийский Эксперимент / Секретный Эксперимент / Эксперимент Филадельфии / The Philadelphia Experiment

Год выпуска: 1984

Страна: США
Жанр: фантастика, триллер, драма, приключения, биография
Продолжительность: 01:41:11
Перевод: Профессиональный (двухголосый закадровый) - НТВ
Cубтитры: нет
Режиссер: Стюарт Рэффил / Stuart Raffill
В ролях: Майкл Паре (David Herdeg), Нэнси Аллен (Allison Hayes), Эрик Кристмас (Dr. James Longstreet), Бобби Ди Чикко (Jim Parker), Луиз Лэтэм (Pamela), Кин Холлидэй (Major Clark), Джо Дорси (Sheriff Bates), Майкл Карри (Magnussen), Стивен Тоболовски (Barney), Гэри Брокетт (Adjutant / Andrews)
Мировая премьера: 3 августа 1984
Описание: Вторая мировая война. Испытывается оборудование, которое делает американские военные корабли невидимыми для радаров противника. Во время этих экспериментов исчезает один боевой корабль, а два моряка оказываются заброшенными в 1984 год.
Доп. информация:
Исходник видео с рутора.
За оцифровку с видеокассеты перевода, записанного с телеканала НТВ в середине 90-х годов через видеомагнитофон неизвестным человеком большое спасибо [url=profile.php?mode=viewprofile&u=14145161]Sp1end1d[/url].
Синхронизация перевода - [url=profile.php?mode=viewprofile&u=20398762]JUSTKANT[/url].
В данной раздаче перевод НТВ не обработанный всякими фильтрами и шумодавами в отличии от такого же перевода [url=viewtopic.php?t=4895782]в этой раздаче[/url].
Слушайте сэмпл - первая дорожка из моей раздачи, вторая - оттуда.
На русский язык фильм озвучен телекомпанией НТВ.
Текст читают Дмитрий Полонский и Марина Тарасова.

Рейтинг

MPAA: R - Лицам до 17 лет обязательно присутствие взрослого.
Качество видео: BDRip
Формат видео: AVI -> //SAMPLE//
Видео: XviD, 720x400 (16:9), 23.976 fps, 1858 kbps avg
Аудио:
1 - 48 khz, AC3 Dolby Digital, 2/0 (L,R) ch, ~192 kbps [НТВ] VHSRip
General
Complete name : D:\Релизы на Трекере\Филадельфийский Эксперимент (НТВ).avi
Format : AVI
Format/Info : Audio Video Interleave
File size : 1.46 GiB
Duration : 1h 41mn
Overall bit rate : 2 059 Kbps
Movie name : The.Philadelphia.Experiment.1984.BDRip.JRG.[ СПАМ
Writing application : VirtualDubMod 1.5.10.3 | www.virtualdub-fr.org || (build 2550/release)
Writing library : VirtualDubMod build 2550/release
Copyright : R.G. Jolly Roger
Comment : http:// СПАМ
Video
ID : 0
Format : MPEG-4 Visual
Format profile : Advanced Simple@L5
Format settings, BVOP : 2
Format settings, QPel : No
Format settings, GMC : No warppoints
Format settings, Matrix : Default (MPEG)
Codec ID : XVID
Codec ID/Hint : XviD
Duration : 1h 41mn
Bit rate : 1 858 Kbps
Width : 720 pixels
Height : 400 pixels
Display aspect ratio : 16:9
Frame rate : 23.976 fps
Color space : YUV
Chroma subsampling : 4:2:0
Bit depth : 8 bits
Scan type : Progressive
Compression mode : Lossy
Bits/(Pixel*Frame) : 0.269
Stream size : 1.31 GiB (90%)
Writing library : XviD 1.2.0.dev47 (UTC 2006-11-01)
Audio
ID : 1
Format : AC-3
Format/Info : Audio Coding 3
Mode extension : CM (complete main)
Format settings, Endianness : Big
Codec ID : 2000
Duration : 1h 41mn
Bit rate mode : Constant
Bit rate : 192 Kbps
Channel(s) : 2 channels
Channel positions : Front: L R
Sampling rate : 48.0 KHz
Compression mode : Lossy
Stream size : 139 MiB (9%)
Alignment : Split accross interleaves
Interleave, duration : 42 ms (1.00 video frame)
Interleave, preload duratio : 500 ms



Скачать Филадельфийский.Эксперимент.The.Philadelphia.Experiment.(Стюарт.Рэффил).[1984.фантастика.триллер.драма.приключения.биография.BDRip].[DVO.(НТВ)].torrent без регистрации
Золото ЗОЛОТАЯ РАЗДАЧА! СКАЧАННОЕ НЕ ЗАСЧИТЫВАЕТСЯ! Золото
Дата: Зарегистрирован   [ Тип: внутренний ] Как тут cкачать?
MAGNET ссылка
MAGNET ссылка


Скачать .torrent

15 KB

Статус: проверено DHT
Скачан: торрент - 49 раз, раздача полностью - 6 раз
Размер: 1,46 GB
Оценка:  - (Голосов: 0)
Поблагодарили: 1
Поделиться ссылкой на эту раздачу с друзьями:
В контактеFacebookОдноклассникиTwitterLivejournalМой МирLiveinternet
 

 
Показать сообщения:    


Вы не можете начинать темы
Вы не можете отвечать на сообщения
Вы не можете редактировать свои сообщения
Вы не можете удалять свои сообщения
Вы не можете голосовать в опросах
Вы не можете прикреплять файлы к сообщениям
Вы можете скачивать файлы