Loading...
Error

Скачать Джек Айриш / Jack Irish (сезоны 01-02) (Джеффри Уокер) [2012-2014, драма, криминал, детектив, BDRip] [720p] [MVO (AlexFilm & Agatha Studdio)]+[Eng] торрент без регистрации

 
Статистика раздачи
Размер:  14,26 GB   |    Скачан:  50 раз
Сидов:  1  [  0 KB/s  ]  
 
Автор Сообщение

МихаНЕзатор

[] 

Год выпуска: 2012-2014
Страна: Австралия
Жанр: драма, криминал, детектив
Продолжительность: 01:43:57 + 01:37:42 + 01:26:53
Озвучание: профессиональное многоголосое закадровое (AlexFilm & Agatha Studdio)
Субтитры: русские (только в 3 части), английские
Режиссёр: Джеффри Уокер

В ролях: Гай Пирс, Марта Дюссельдорп, Аарон Педерсен, Рой Биллинг, Шэйн Джейкобсон, Дэмиен Ричардсон, Вадим Гловна, Колин Фрилз, Эмма Бут, Стив Бисли, Маршалл Напье, Риз Малдун, Тотти Голдсмит, Колин Хэй, Николас Белл, Дон Хани, Диана Гленн, Мартин Сакс, Бэрри Хамфриз...

Описание: Джек Айриш (Гай Пирс) - человек, пытающийся вновь собрать свою жизнь воедино. Бывший адвокат, чей мир взорвался после того, как его жену Изабель убил клиент, Джек попытался полностью раствориться в алкоголе. Впрочем, благодаря друзьям он не слишком преуспел в этой попытке. Он бросил заниматься уголовным правом и сейчас просто живет полноценной "мужской жизнью": спорт, выпивка, искусство, ставки, драки, редкая любовь...
Он работает на Гарри Странга, выбивая долги и помогая манипулировать ставками на скачках. Еще его можно найти в мебельной мастерской Чарли Тауба, где он обучается старинным методам работы с деревом. А его вторым домом стал паб Принц Пруссии - последняя цитадель футбольного клуба Фицрой, легендой которого был его отец. Он успешно избегает своего прошлого, до тех пор, пока прошлое не находит его само...



Перевод: vipere
Редактор перевода: Agatha (1 и 2), AF (3)
Роли озвучивали: Владимир Курдов, Константин Погодаев, Семён Ващенко, Татьяна Манетина.

Качество: BDRip 720p (EbP)
Формат: MKV
Видео кодек: x264
Аудио кодек: AC3
Видео: 1280x720 (1280x710 в 1 части), 23.976 fps, MPEG-4 AVC ~5800 kbps avg, 0.26 bit/pixel
Аудио Rus: 48 kHz, AC3, 2/0 (L,R) ch, ~640.00 kbps
Аудио Eng: 48 kHz, AC3, 2/0 (L,R) ch, ~640.00 kbps

АНОНСЫ ПОПУЛЯРНЫХ РАЗДАЧ
Format : Matroska
Format version : Version 4 / Version 2
File size : 5.14 GiB
Duration : 1h 43mn
Overall bit rate : 7 079 Kbps
Movie name : Jack Irish: Bad Debts
Encoded date : UTC 2014-09-20 18:56:47
Writing application : mkvmerge v6.6.0 ('The Edge Of The In Between') built on Dec 1 2013 17:55:00
Writing library : libebml v1.3.0 + libmatroska v1.4.1

Video
ID : 1
Format : AVC
Format/Info : Advanced Video Codec
Format profile : High@L4.1
Format settings, CABAC : Yes
Format settings, ReFrames : 4 frames
Codec ID : V_MPEG4/ISO/AVC
Duration : 1h 43mn
Bit rate : 5 800 Kbps
Width : 1 280 pixels
Height : 710 pixels
Display aspect ratio : 16:9
Frame rate mode : Constant
Frame rate : 23.976 fps
Color space : YUV
Chroma subsampling : 4:2:0
Bit depth : 8 bits
Scan type : Progressive
Bits/(Pixel*Frame) : 0.266
Stream size : 4.11 GiB (80%)
Writing library : x264 core 129 r2230 1cffe9f
Encoding settings : cabac=1 / ref=4 / deblock=1:-3:-3 / analyse=0x3:0x113 / me=umh / subme=9 / psy=1 / psy_rd=1.05:0.00 / mixed_ref=1 / me_range=16 / chroma_me=1 / trellis=2 / 8x8dct=1 / cqm=0 / deadzone=21,11 / fast_pskip=0 / chroma_qp_offset=-2 / threads=12 / lookahead_threads=2 / sliced_threads=0 / nr=0 / decimate=0 / interlaced=0 / bluray_compat=0 / constrained_intra=0 / bframes=8 / b_pyramid=2 / b_adapt=2 / b_bias=0 / direct=3 / weightb=1 / open_gop=0 / weightp=2 / keyint=250 / keyint_min=23 / scenecut=40 / intra_refresh=0 / rc=2pass / mbtree=0 / bitrate=5800 / ratetol=1.0 / qcomp=0.60 / qpmin=0 / qpmax=69 / qpstep=4 / cplxblur=20.0 / qblur=0.5 / ip_ratio=1.40 / pb_ratio=1.30 / aq=1:0.60
Language : English
Default : Yes
Forced : No

Audio #1
ID : 2
Format : AC-3
Format/Info : Audio Coding 3
Mode extension : CM (complete main)
Format settings, Endianness : Big
Codec ID : A_AC3
Duration : 1h 43mn
Bit rate mode : Constant
Bit rate : 640 Kbps
Channel(s) : 2 channels
Channel positions : Front: L R
Sampling rate : 48.0 KHz
Bit depth : 16 bits
Compression mode : Lossy
Stream size : 476 MiB (9%)
Title : DD2.0 Agatha Studdio
Language : Russian
Default : Yes
Forced : No

Audio #2
ID : 3
Format : AC-3
Format/Info : Audio Coding 3
Mode extension : CM (complete main)
Format settings, Endianness : Big
Codec ID : A_AC3
Duration : 1h 43mn
Bit rate mode : Constant
Bit rate : 640 Kbps
Channel(s) : 2 channels
Channel positions : Front: L R
Sampling rate : 48.0 KHz
Bit depth : 16 bits
Compression mode : Lossy
Stream size : 476 MiB (9%)
Title : DD2.0 Original
Language : English
Default : No
Forced : No

Text #1
ID : 4
Format : UTF-8
Codec ID : S_TEXT/UTF8
Codec ID/Info : UTF-8 Plain Text
Title : Original
Language : English
Default : No
Forced : No

Text #2
ID : 5
Format : UTF-8
Codec ID : S_TEXT/UTF8
Codec ID/Info : UTF-8 Plain Text
Title : Original (SDH)
Language : English
Default : No
Forced : No

Menu
00:00:00.000 : en:Chapter 1
00:13:11.958 : en:Chapter 2
00:26:32.633 : en:Chapter 3
00:42:16.743 : en:Chapter 4
00:58:56.616 : en:Chapter 5
01:13:38.247 : en:Chapter 6
01:25:53.690 : en:Chapter 7
01:42:52.625 : en:Chapter 8



Скачать Джек.Айриш.Jack.Irish.(сезоны.01-02).(Джеффри.Уокер).[2012-2014.драма.криминал.детектив.BDRip].[720p].[MVO.(AlexFilm.&.Agatha.Studdio)]+[Eng].torrent без регистрации
Золото ЗОЛОТАЯ РАЗДАЧА! СКАЧАННОЕ НЕ ЗАСЧИТЫВАЕТСЯ! Золото
Дата: Зарегистрирован   [ Тип: внутренний ] Как тут cкачать?
MAGNET ссылка
MAGNET ссылка


Скачать .torrent

72 KB

Статус: проверено DHT
Скачан: торрент - 50 раз, раздача полностью - 16 раз
Размер: 14,26 GB
Оценка:  - (Голосов: 0)
Поблагодарили: 0
Поделиться ссылкой на эту раздачу с друзьями:
В контактеFacebookОдноклассникиTwitterLivejournalМой МирLiveinternet
 

 
Показать сообщения:    


Вы не можете начинать темы
Вы не можете отвечать на сообщения
Вы не можете редактировать свои сообщения
Вы не можете удалять свои сообщения
Вы не можете голосовать в опросах
Вы не можете прикреплять файлы к сообщениям
Вы можете скачивать файлы