Loading...
Error

Скачать Оттенки синего / Shades of Blue (сезон 01) (Барри Левинсон, Милисент Шелтон) [2016, драма, криминал, WEBRip] [720p] [DVO (Sunshine Studio)] торрент без регистрации

 
Статистика раздачи
Размер:  9,88 GB   |    Скачан:  30 раз

Полного источника не было: 29 минут

 
Автор Сообщение

МихаНЕзатор

[] 

Название: Оттенки синего
Оригинальное название: Shades Of Blue
Год выхода: 2016
Жанр: драма, криминал
Режиссеры: Барри Левинсон, Милисент Шелтон

В ролях: Дженнифер Лопез, Дреа де Маттео, Хэмптон Флакер, Сантино Фонтана, Сара Джеффри, Уоррен Коул, Винсент Лареска, Рэй Лиотта и др.

О сериале: Харли Сантос – сексуальная женщина-детектив, работающая в Нью-Йорке, а в свободное от службы время – мать одиночка. Полицейская дорожка приводит её в дружный коллектив грязных копов, с удовольствием берущих взятки, покрывающих преступников и занимающихся иными видами криминальной деятельности, с которой вообще-то призваны бороться. Харли не отстаёт в зарабатывании нечестного бабла от своих коллег. Но, если те левыми доходами обеспечивают себе красивую жизнь, то Харли деньги нужны для другого. С их помощью она хочет обеспечить достойное будущее для собственной дочери – девочки талантливой и честной. Проблемы начинаются, когда героиня попадает в сети ФБР. Сотрудники Бюро принуждают её стучать на тех, кто ещё вчера был ей друзьями-приятелями. А значит, придётся идти по тонкой линии между любовью и изменившимися обстоятельствами, предательством и честью.

Релиз группа:

Страна: США
Продолжительность: ~ 00:45:00
Перевод: Любительский (двухголосый) Sunshine Studio
Субтитры: Отсутствуют
Реклама: Присутствует

Файл
Формат: MKV
Качество: WEBRip 720р
Видео: MPEG-4 AVC, ~ 2510 Кбит/c, 1280x720
Аудио: 48 kHz, AC3 Dolby Digital, 2/0 (L,R) ch, ~192 kbps

АНОНСЫ ПОПУЛЯРНЫХ РАЗДАЧ
Формат : Matroska
Версия формата : Version 2
Размер файла : 769 Мбайт
Продолжительность : 41 м.
Общий поток : 2581 Кбит/сек
Дата кодирования : UTC 2016-03-26 17:51:01
Программа кодирования : mkvmerge v4.9.1 ('Ich will') built on Sep 21 2011 17:48:11
Библиотека кодирования : libebml v1.2.1 + libmatroska v1.2.0

Видео
Идентификатор : 1
Формат : AVC
Формат/Информация : Advanced Video Codec
Профиль формата : High@L3
Параметр CABAC формата : Нет
Параметр ReFrames формата : 1 кадр
Режим смешивания : Header stripping
Идентификатор кодека : V_MPEG4/ISO/AVC
Продолжительность : 41 м.
Битрейт : 2400 Кбит/сек
Ширина : 1280 пикселей
Высота : 720 пикселей
Соотношение сторон : 16:9
Режим частоты кадров : Постоянный
Частота кадров : 29,970 (29970/1000) кадров/сек
Цветовое пространство : YUV
Субдискретизация насыщенности : 4:2:0
Битовая глубина : 8 бит
Тип развёртки : Прогрессивная
Бит/(Пиксели*Кадры) : 0.087
Размер потока : 696 Мбайт (91%)
Библиотека кодирования : x264 core 80 r1378+57 6f6b50a
Настройки программы : cabac=0 / ref=1 / deblock=1:0:0 / analyse=0x3:0x113 / me=hex / subme=7 / psy=1 / psy_rd=1.0:0.0 / mixed_ref=0 / me_range=16 / chroma_me=1 / trellis=0 / 8x8dct=1 / cqm=0 / deadzone=21,11 / fast_pskip=1 / chroma_qp_offset=-2 / threads=6 / sliced_threads=0 / nr=0 / decimate=1 / mbaff=0 / constrained_intra=0 / bframes=0 / wpredp=2 / keyint=250 / keyint_min=25 / scenecut=40 / rc_lookahead=40 / rc=abr / mbtree=1 / bitrate=2400 / ratetol=1.0 / qcomp=0.60 / qpmin=10 / qpmax=51 / qpstep=4 / ip_ratio=1.40 / aq=1:1.00
Default : Да
Forced : Нет

Аудио
Идентификатор : 2
Формат : AC-3
Формат/Информация : Audio Coding 3
Расширение режима : CM (complete main)
Параметр Endianness формата : Big
Режим смешивания : Header stripping
Идентификатор кодека : A_AC3
Продолжительность : 41 м.
Вид битрейта : Постоянный
Битрейт : 192 Кбит/сек
Каналы : 2 канала
Расположение каналов : Front: L R
Частота : 48,0 КГц
Частота кадров : 31,250 кадров/сек (1536 spf)
Метод сжатия : С потерями
Размер потока : 57,2 Мбайт (7%)
Default : Да
Forced : Нет



Скачать Оттенки.синего.Shades.of.Blue.(сезон.01).(Барри.Левинсон.Милисент.Шелтон).[2016.драма.криминал.WEBRip].[720p].[DVO.(Sunshine.Studio)].torrent без регистрации
Золото ЗОЛОТАЯ РАЗДАЧА! СКАЧАННОЕ НЕ ЗАСЧИТЫВАЕТСЯ! Золото
Дата: Зарегистрирован   [ Тип: внутренний ] Как тут cкачать?
MAGNET ссылка
MAGNET ссылка


Скачать .torrent

26 KB

Статус: проверено DHT
Скачан: торрент - 30 раз, раздача полностью - 1 раз
Размер: 9,88 GB
Оценка:  - (Голосов: 0)
Поблагодарили: 0
Поделиться ссылкой на эту раздачу с друзьями:
В контактеFacebookОдноклассникиTwitterLivejournalМой МирLiveinternet
 

 
Показать сообщения:    


Вы не можете начинать темы
Вы не можете отвечать на сообщения
Вы не можете редактировать свои сообщения
Вы не можете удалять свои сообщения
Вы не можете голосовать в опросах
Вы не можете прикреплять файлы к сообщениям
Вы можете скачивать файлы