Loading...
Error

Скачать Вайнона Эрп / Wynonna Earp (сезон 01) (Рон Мерфи и др.) [2016, фэнтези, боевик, триллер, драма, детектив, вестерн, WEB-DLRip] [MVO (Кравец)]+[Eng] торрент без регистрации

 
Статистика раздачи
Размер:  7,76 GB   |    Скачан:  85 раз
Сидов:  1  [  0 KB/s  ]  
 
Автор Сообщение

МихаНЕзатор

[] 



〤 Вайнона Эрп 〤


Информация о фильме:
✦ Название: Вайнона Эрп
✦ Оригинальное название: Wynonna Earp
✦ Год выхода: 2016
✦ Жанр: фэнтези, боевик, триллер, драма, детектив, вестерн
✦ Режиссер: Рон Мерфи, Питер Стеббингс, Бретт Салливан

✦ В ролях: Мелани Скрофано, Кэтерин Баррелл, Тим Розон, Шамир Андерсон, Грег Лосон, Анна Куик, Доминик Провост-Чалкли, Кейт Драммонд, Дэвид Нэйсом и др.

Описание фильма: Вайнона Эрп – правнучка известного стража закона времен Дикого запада, героя нескольких фильмов и книг Уайетта Эрпа, особенно прославившегося по событиям в городке старателей Тумстоун. Созданный в жанре современного вестерна с примесью мистики сериал рассказывает о том, как наследница шерифа вершит собственное правосудие. Эта отважная девушка, прославившаяся своей меткостью и диким нравом, использует свои уникальные способности, чтобы в компании верных ей союзников ставить на место разного рода демонов и иных существ из потустороннего мира.



✦ Страна: США
✦ Продолжительность: ~ 00:43:00 серия
✦ Перевод: профессиональный (многоголосый, закадровый) - Кравец



Информация о файле:
✦ Формат: XviD / Avi
✦ Качество: WEB-DLRip
✦ Видео: ~ 1500 kbps, 720x400
✦ Аудио RU: MP3, 2 ch, 192 kbps
✦ Аудио EN: MP3, 2 ch, 192 kbps
✦ Субтитры: отсутствуют

АНОНСЫ ПОПУЛЯРНЫХ РАЗДАЧ


Торрент обновлён, добавлена 13-я серия!

General
Complete name : D:\Загрузки\Wynonna Earp (Season 01) Kravec\Wynonna.Earp.S01E01.XviD.Kravec.avi
Format : AVI
Format/Info : Audio Video Interleave
File size : 601 MiB
Duration : 43mn 6s
Overall bit rate : 1 950 Kbps
Writing application : VirtualDubMod 1.5.10.3 | www.virtualdub-fr.org || (build 2550/release)
Writing library : VirtualDubMod build 2550/release
Video
ID : 0
Format : MPEG-4 Visual
Format profile : Advanced Simple@L5
Format settings, BVOP : 2
Format settings, QPel : No
Format settings, GMC : No warppoints
Format settings, Matrix : Default (MPEG)
Codec ID : XVID
Codec ID/Hint : XviD
Duration : 43mn 6s
Bit rate : 1 552 Kbps
Width : 720 pixels
Height : 400 pixels
Display aspect ratio : 16:9
Frame rate : 23.976 (24000/1001) fps
Color space : YUV
Chroma subsampling : 4:2:0
Bit depth : 8 bits
Scan type : Progressive
Compression mode : Lossy
Bits/(Pixel*Frame) : 0.225
Stream size : 478 MiB (80%)
Writing library : XviD 1.2.1 (UTC 2008-12-04)
Audio #1
ID : 1
Format : MPEG Audio
Format version : Version 1
Format profile : Layer 3
Codec ID : 55
Codec ID/Hint : MP3
Duration : 43mn 6s
Bit rate mode : Constant
Bit rate : 192 Kbps
Channel(s) : 2 channels
Sampling rate : 48.0 KHz
Compression mode : Lossy
Stream size : 59.2 MiB (10%)
Alignment : Aligned on interleaves
Interleave, duration : 42 ms (1.00 video frame)
Interleave, preload duratio : 504 ms
Audio #2
ID : 2
Format : MPEG Audio
Format version : Version 1
Format profile : Layer 3
Mode : Joint stereo
Mode extension : MS Stereo
Codec ID : 55
Codec ID/Hint : MP3
Duration : 43mn 6s
Bit rate mode : Constant
Bit rate : 192 Kbps
Channel(s) : 2 channels
Sampling rate : 48.0 KHz
Compression mode : Lossy
Stream size : 59.2 MiB (10%)
Alignment : Aligned on interleaves
Interleave, duration : 42 ms (1.00 video frame)
Interleave, preload duratio : 504 ms
Когда раздача ведётся путём добавления новых серий, при каждом добавлении создётся новый торрент. Чтобы начать докачку новой серии, пользователям необходимо сделать следующее:
(1) остановить скачивание,
(2) удалить старый торрент у себя из клиента (старые серии удалять не надо),
(3) скачать новый торрент и запустить его у себя в клиенте вместо старого, при этом указать клиенту путь в старую папку, куда и должно происходить скачивание новых серий.
Ваш клиент при этом должен произвести хеширование (проверку) старой папки (если не производит сам - помогите ему сделать это), и будет докачивать только те серии, которых у вас ещё нет. Старые серии при этом не удаляются, а продолжают раздаваться!
Eсли вы уже удалили старые серии, то предотвратить повторную закачку старых серий можно, отжав галочку в соответсвующих местах при запуске нового торрента. По возможности, желательно не удалять старые серии как можно дольше, чтобы релизёр не столько продолжал раздавать старые серии, а смог сконцентрироваться на новых.



Скачать Вайнона.Эрп.Wynonna.Earp.(сезон.01).(Рон.Мерфи.и.др.).[2016.фэнтези.боевик.триллер.драма.детектив.вестерн.WEB-DLRip].[MVO.(Кравец)]+[Eng].torrent без регистрации
Золото ЗОЛОТАЯ РАЗДАЧА! СКАЧАННОЕ НЕ ЗАСЧИТЫВАЕТСЯ! Золото
Дата: Зарегистрирован   [ Тип: внутренний ] Как тут cкачать?
MAGNET ссылка
MAGNET ссылка


Скачать .torrent

21 KB

Статус: проверено DHT
Скачан: торрент - 85 раз, раздача полностью - 12 раз
Размер: 7,76 GB
Оценка:  - (Голосов: 0)
Поблагодарили: 2
Поделиться ссылкой на эту раздачу с друзьями:
В контактеFacebookОдноклассникиTwitterLivejournalМой МирLiveinternet
 

 
Показать сообщения:    


Вы не можете начинать темы
Вы не можете отвечать на сообщения
Вы не можете редактировать свои сообщения
Вы не можете удалять свои сообщения
Вы не можете голосовать в опросах
Вы не можете прикреплять файлы к сообщениям
Вы можете скачивать файлы