Loading...
Error

Скачать Остаться в живых / Fritt vilt (Роар Утхауг) [2006, триллер, BDRip-AVC] [DVO]+[AVO]+[VO]+[Оригинал]+[Sub] торрент без регистрации

 
Статистика раздачи
Размер:  2,67 GB   |    Скачан:  49 раз
Сидов:  1  [  0 KB/s  ]  
 
Автор Сообщение

Marsianka

[] 

Остаться в живых / Холодная добыча / Fritt vilt (2006) BDRip-AVC
Производство: Норвегия, Fantefilm
Жанр: триллер

Режиссер: Роар Утхауг
Актеры: Ингрид Болсай Бердал, Рольф Кристиан Ларсен, Томас Альф Ларсен, Андрэ Мартин Мидтстайген, Виктория Винги, Руне Мелби, Тони Лунде

Описание:
Эта история началась походом в горы, а закончилась борьбой за выживание. В середине зимы, группа молодых людей поехала в Ютенхейм, покататься на сноубордах. В результате несчастного случая, один из них сломал ногу, и они оказались в затруднительном положении, так как поблизости не было людей, а у сотового отсутствовал сигнал. В горах они набрели на заброшенный отель, но и оттуда они не смогли вызвать помощь - телефонная линия давно вышла из строя. Им пришлось заночевать в отеле, и ночью они увидели то, что разубедило их в том, что они тут одни...


Возраст: 16+ (зрителям, достигшим 16 лет)
Дата мировой премьеры: 13 октября 2006
Дата выхода DVD/Blu-ray релиза: 16 апреля 2009, «Мьюзик-Трейд»

Релиз от: K.E.N (NNM-CLUB)
Продолжительность: 01:33:22
Качество видео: BDRip-AVC
Видео: AVC, 1024x432 (2.35:1), 25 fps, 2 882 Kbps (0.261 bit/pixel)
Перевод: Профессиональный двухголосый, авторский одноголосый (А.Дольский), любительский одноголосый (RussianGuy27)
Язык субтитров: Английский
Вид субтитров: Вшитые отключаемые
Аудио #1: AC-3, 48.0 KHz, 6 ch, 448 Kbps, CBR (Russian) - двухголосый R5
Аудио #2: AC-3, 48.0 KHz, 2 ch, 192 Kbps, CBR (Russian) - авторский А.Дольский
Аудио #3: AC-3, 48.0 KHz, 2 ch, 192 Kbps, CBR (Russian) - любительский RussianGuy27
Аудио #4: AC-3, 48.0 KHz, 6 ch, 384 Kbps, CBR (Norwegian) - оригинал

Формат : Matroska
Версия формата : Version 2
Размер файла : 2,67 Гбайт
Продолжительность : 1 ч. 33 м.
Общий поток : 4095 Кбит/сек
Дата кодирования : UTC 2016-04-05 05:39:52
Программа кодирования : mkvmerge v5.3.0 ('I could have danced') built on Feb 9 2012 10:38:07
Библиотека кодирования : libebml v1.2.3 + libmatroska v1.3.0
Attachment : Yes

Видео
Идентификатор : 1
Формат : AVC
Формат/Информация : Advanced Video Codec
Профиль формата : High@L4.1
Параметр CABAC формата : Да
Параметр ReFrames формата : 10 кадров
Идентификатор кодека : V_MPEG4/ISO/AVC
Продолжительность : 1 ч. 33 м.
Битрейт : 2882 Кбит/сек
Ширина : 1024 пикселя
Высота : 432 пикселя
Соотношение сторон : 2,40:1
Режим частоты кадров : Постоянный
Частота кадров : 25,000 кадров/сек
Цветовое пространство : YUV
Субдискретизация насыщенности : 4:2:0
Битовая глубина : 8 бит
Тип развёртки : Прогрессивная
Бит/(Пиксели*Кадры) : 0.261
Размер потока : 1,83 Гбайт (68%)
Библиотека кодирования : x264 core 146 r2538 121396c
Настройки программы : cabac=1 / ref=10 / deblock=1:-3:-3 / analyse=0x3:0x133 / me=umh / subme=10 / psy=1 / psy_rd=1.00:0.10 / mixed_ref=1 / me_range=32 / chroma_me=1 / trellis=2 / 8x8dct=1 / cqm=0 / deadzone=21,11 / fast_pskip=0 / chroma_qp_offset=-3 / threads=12 / lookahead_threads=2 / sliced_threads=0 / nr=0 / decimate=0 / interlaced=0 / bluray_compat=0 / constrained_intra=0 / bframes=8 / b_pyramid=2 / b_adapt=2 / b_bias=0 / direct=3 / weightb=1 / open_gop=0 / weightp=2 / keyint=250 / keyint_min=25 / scenecut=40 / intra_refresh=0 / rc=2pass / mbtree=0 / bitrate=2882 / ratetol=1.0 / qcomp=0.60 / qpmin=0 / qpmax=69 / qpstep=4 / cplxblur=20.0 / qblur=0.5 / ip_ratio=1.40 / pb_ratio=1.30 / aq=1:0.70
Default : Да
Forced : Нет

Аудио #1
Идентификатор : 2
Формат : AC-3
Формат/Информация : Audio Coding 3
Расширение режима : CM (complete main)
Параметр Endianness формата : Big
Идентификатор кодека : A_AC3
Продолжительность : 1 ч. 33 м.
Вид битрейта : Постоянный
Битрейт : 448 Кбит/сек
Каналы : 6 каналов
Расположение каналов : Front: L C R, Side: L R, LFE
Частота : 48,0 КГц
Битовая глубина : 16 бит
Метод сжатия : С потерями
Размер потока : 299 Мбайт (11%)
Заголовок : Профессиональный (двухголосый) R5
Язык : Russian
Default : Да
Forced : Нет

Аудио #2
Идентификатор : 3
Формат : AC-3
Формат/Информация : Audio Coding 3
Расширение режима : CM (complete main)
Параметр Endianness формата : Big
Идентификатор кодека : A_AC3
Продолжительность : 1 ч. 33 м.
Вид битрейта : Постоянный
Битрейт : 192 Кбит/сек
Каналы : 2 канала
Расположение каналов : Front: L R
Частота : 48,0 КГц
Битовая глубина : 16 бит
Метод сжатия : С потерями
Задержка видео : 12 мс.
Размер потока : 128 Мбайт (5%)
Заголовок : Авторский А.Дольский
Язык : Russian
Default : Нет
Forced : Нет

Аудио #3
Идентификатор : 4
Формат : AC-3
Формат/Информация : Audio Coding 3
Расширение режима : CM (complete main)
Параметр Endianness формата : Big
Идентификатор кодека : A_AC3
Продолжительность : 1 ч. 33 м.
Вид битрейта : Постоянный
Битрейт : 192 Кбит/сек
Каналы : 2 канала
Расположение каналов : Front: L R
Частота : 48,0 КГц
Битовая глубина : 16 бит
Метод сжатия : С потерями
Размер потока : 128 Мбайт (5%)
Заголовок : Любительский одноголосый - RussianGuy27
Язык : Russian
Default : Нет
Forced : Нет

Аудио #4
Идентификатор : 5
Формат : AC-3
Формат/Информация : Audio Coding 3
Расширение режима : CM (complete main)
Параметр Endianness формата : Big
Идентификатор кодека : A_AC3
Продолжительность : 1 ч. 33 м.
Вид битрейта : Постоянный
Битрейт : 384 Кбит/сек
Каналы : 6 каналов
Расположение каналов : Front: L C R, Side: L R, LFE
Частота : 48,0 КГц
Битовая глубина : 16 бит
Метод сжатия : С потерями
Размер потока : 257 Мбайт (9%)
Заголовок : оригинал
Язык : Norwegian
Default : Нет
Forced : Нет

Текст
Идентификатор : 6
Формат : UTF-8
Идентификатор кодека : S_TEXT/UTF8
Идентификатор кодека/Информация : UTF-8 Plain Text
Язык : English
Default : Нет
Forced : Нет

Меню
00:00:00.000 : en:00:00:00.000
00:06:38.840 : en:00:06:38.840
00:14:03.440 : en:00:14:03.440
00:20:54.760 : en:00:20:54.760
00:28:56.800 : en:00:28:56.800
00:36:09.600 : en:00:36:09.600
00:44:33.320 : en:00:44:33.320
00:49:37.000 : en:00:49:37.000
00:58:36.240 : en:00:58:36.240
01:06:04.160 : en:01:06:04.160
01:15:02.160 : en:01:15:02.160
01:23:01.840 : en:01:23:01.840



Скачать Остаться.в.живых.Fritt.vilt.(Роар.Утхауг).[2006.триллер.BDRip-AVC].[DVO]+[AVO]+[VO]+[Оригинал]+[Sub].torrent без регистрации
Золото ЗОЛОТАЯ РАЗДАЧА! СКАЧАННОЕ НЕ ЗАСЧИТЫВАЕТСЯ! Золото
Дата: Зарегистрирован   [ Тип: внутренний ] Как тут cкачать?
MAGNET ссылка
MAGNET ссылка


Скачать .torrent

14 KB

Статус: проверено DHT
Скачан: торрент - 49 раз, раздача полностью - 2 раз
Размер: 2,67 GB
Оценка:  - (Голосов: 0)
Поблагодарили: 0
Поделиться ссылкой на эту раздачу с друзьями:
В контактеFacebookОдноклассникиTwitterLivejournalМой МирLiveinternet
 

 
Показать сообщения:    


Вы не можете начинать темы
Вы не можете отвечать на сообщения
Вы не можете редактировать свои сообщения
Вы не можете удалять свои сообщения
Вы не можете голосовать в опросах
Вы не можете прикреплять файлы к сообщениям
Вы можете скачивать файлы