Loading...
Error

Скачать Комиссар полиции Мартин Бек / Beck (05x01-02 из 04) (Стефан Апельгрен, Мартен Клинберг) [2015, триллер, криминал, детектив, HDTVRip] [VO (Project Web Mania)] торрент без регистрации

 
Статистика раздачи
Размер:  2,76 GB   |    Скачан:  39 раз
Сидов:  1  [  0 KB/s  ]  
 
Автор Сообщение

МихаНЕзатор

[] 

Информация о фильме
Название: Комиссар полиции Мартин Бек (Мартин Бек)
Оригинальное название: Beck
Год выхода: 2015
Жанр: триллер, криминал, детектив
Режиссер: Стефан Апельгрен, Мартен Клинберг

В ролях: Питер Абер, Микаэл Персбрандт, Йонас Карлссон, Ребека Хемсе, Манс Натанаэльсон, София Зуаги, Эльмира Арикан, Ану Синисало, Анна Асп, Ингвар Хирдвалль

О фильме:Детективный сериал «Комиссар полиции Мартин Бек» снят по мотивам произведений Пера Валё и Май Шёвалль. Шведский детектив Мартин Бек уже давно занял достойное место среди всемирно известных сыщиков наряду с Шерлоком Холмсом и инспектором Мегрэ. Настоящий нордический характер, помноженный на уникальные дедуктивные способности — что еще нужно для того, чтобы ни одно преступление не осталось нераскрытым? Впрочем, он обычный человек, который расстался с женой, не находит понимания у детей, часто простужается, много курит, и по утрам внимательно прислушивается — где кольнет на этот раз?..

Релиз от: Автор релиза:

Страна: Швеция, Германия, Дания, Nordisk Film, Shine International, Filmlance International AB&TV4 AB, ZDF, TV2 NORGE
Продолжительность: 2 x ~ 00:01:30
Перевод: Любительский одноголосый (Project Web Mania)

Файл
Кодек: XviD
Качество: HDTVRip
Видео: XviD, ~ 2065 Кбит/с, 720x400
Звук: AC3, 2 ch, 192 Кбит/с

АНОНСЫ ПОПУЛЯРНЫХ РАЗДАЧ
Видео
Идентификатор : 0
Формат : MPEG-4 Visual
Профиль формата : Advanced Simple@L5
Параметр BVOP формата : 2
Параметр QPel формата : Нет
Параметр GMC формата : Без точки перехода
Параметр матрицы формата : Выборочная
Идентификатор кодека : XVID
Идентификатор кодека/Подсказка : XviD
Продолжительность : 1 ч. 25 м.
Битрейт : 2065 Кбит/сек
Ширина : 720 пикселей
Высота : 400 пикселей
Соотношение сторон : 16:9
Частота кадров : 25,000 кадров/сек
Цветовое пространство : YUV
Субдискретизация насыщенности : 4:2:0
Битовая глубина : 8 бит
Тип развёртки : Прогрессивная
Метод сжатия : С потерями
Бит/(Пиксели*Кадры) : 0.287
Размер потока : 1,24 Гбайт (91%)
Библиотека кодирования : XviD 64

Аудио
Идентификатор : 1
Формат : AC-3
Формат/Информация : Audio Coding 3
Расширение режима : CM (complete main)
Параметр Endianness формата : Big
Идентификатор кодека : 2000
Продолжительность : 1 ч. 25 м.
Вид битрейта : Постоянный
Битрейт : 192 Кбит/сек
Каналы : 2 канала
Расположение каналов : Front: L R
Частота : 48,0 КГц
Битовая глубина : 16 бит
Метод сжатия : С потерями
Размер потока : 118 Мбайт (8%)
Выравнивание : Разделение по промежуткам
Продолжительность промежутка : 40 мс. (1,00 видеокадр)
Время предзагрузки промежутка : 500 мс.



Скачать Комиссар.полиции.Мартин.Бек.Beck.(05x01-02.из.04).(Стефан.Апельгрен.Мартен.Клинберг).[2015.триллер.криминал.детектив.HDTVRip].[VO.(Project.Web.Mania)].torrent без регистрации
Золото ЗОЛОТАЯ РАЗДАЧА! СКАЧАННОЕ НЕ ЗАСЧИТЫВАЕТСЯ! Золото
Дата: Зарегистрирован   [ Тип: внутренний ] Как тут cкачать?
MAGNET ссылка
MAGNET ссылка


Скачать .torrent

15 KB

Статус: проверено DHT
Скачан: торрент - 39 раз, раздача полностью - 11 раз
Размер: 2,76 GB
Оценка:  - (Голосов: 0)
Поблагодарили: 0
Поделиться ссылкой на эту раздачу с друзьями:
В контактеFacebookОдноклассникиTwitterLivejournalМой МирLiveinternet
 

 
Показать сообщения:    


Вы не можете начинать темы
Вы не можете отвечать на сообщения
Вы не можете редактировать свои сообщения
Вы не можете удалять свои сообщения
Вы не можете голосовать в опросах
Вы не можете прикреплять файлы к сообщениям
Вы можете скачивать файлы