Loading...
Error

Скачать 12 обезьян / 12 Monkeys (Сезон 02, серия 01 из 13) (Дэвид Гроссман, Майкл Ваксман, Джон Бэдэм) [2016, фантастика, триллер, драма, детектив, приключения, HDTVRip-AVC] [Sub] (Rus) + [Orig] (Eng) торрент без регистрации

 
Статистика раздачи
Размер:  258 MB   |    Скачан:  38 раз
Сидов:  1  [  0 KB/s  ]  
 
Автор Сообщение

leon030982

[] 


12 обезьян / 12 Monkeys



Год выпуска: 2016
Страна: США
Жанр: фантастика, триллер, драма, детектив, приключения
Продолжительность: 1х~ 00:47:00
Перевод: Русские субтитры ! [Notabenoid]
Оригинал: английский

Режиссер: Дэвид Гроссман, Майкл Ваксман, Джон Бэдэм

В ролях: Аарон Стэнфорд, Аманда Шулл, Кирк Асеведо, Ной Бин, Демор Барнс, Рамон Де Окампо, Benjamin Meranda, Алисен Даун, Барбара Зукова,
Эмили Хэмпшир
Описание: Коул является уголовником из постапокалиптического будущего. Его осудили за дерзкое поведение и неподчинение властям. В конце девяностых некий вирус уничтожил почти всю популяцию людей, а те, кому удалось выжить, укрылись под землей. В то время ученые уже изобрели технологию путешествия во времени, и Коул стал «морской свинкой», на которой эту технологию решили испытать. Он должен добыть для изучения образцы вируса из прошлого и за это получит полное прощение за все содеянное.



Качество: HDTVRip-AVC
Формат: MKV
Видео кодек: AVC
Аудио кодек: AAC
Видео: MPEG4-AVC, ~806 Кбит/с, 720x404, 23.976 fps
Аудио: 44.1 KHz, AAC, 2 ch, 133 Кбит/с
Notabenoid, создатель cloudmachine
Чем отличается сериал от фильма: ttp://www.kinopoisk.ru/news/2443975/

Код:

General
Complete name                            : E:\12 Monkeys_S02\12.Monkeys.S02E01.WEBRip.x264-FUM[ettv].mp4
Format                                   : MPEG-4
Format profile                           : Base Media
Codec ID                                 : isom
File size                                : 257 MiB
Duration                                 : 43mn 52s
Overall bit rate mode                    : Variable
Overall bit rate                         : 921 Kbps
Encoded date                             : UTC 2016-04-04 23:48:01
Tagged date                              : UTC 2016-04-04 23:48:01

Video
ID                                       : 1
Format                                   : AVC
Format/Info                              : Advanced Video Codec
Format profile                           : High@L3.1
Format settings, CABAC                   : Yes
Format settings, ReFrames                : 8 frames
Codec ID                                 : avc1
Codec ID/Info                            : Advanced Video Coding
Duration                                 : 43mn 52s
Bit rate                                 : 806 Kbps
Maximum bit rate                         : 4 553 Kbps
Width                                    : 720 pixels
Height                                   : 404 pixels
Display aspect ratio                     : 16:9
Frame rate mode                          : Constant
Frame rate                               : 23.976 fps
Color space                              : YUV
Chroma subsampling                       : 4:2:0
Bit depth                                : 8 bits
Scan type                                : Progressive
Bits/(Pixel*Frame)                       : 0.101
Stream size                              : 222 MiB (86%)
Writing library                          : x264 core 148 r2665 a01e339
Encoding settings                        : cabac=1 / ref=8 / deblock=1:0:0 / analyse=0x3:0x133 / me=umh / subme=9 / psy=1 / psy_rd=1.00:0.00 / mixed_ref=1 / me_range=16 / chroma_me=1 / trellis=2 / 8x8dct=1 / cqm=0 / deadzone=21,11 / fast_pskip=1 / chroma_qp_offset=-2 / threads=12 / lookahead_threads=1 / sliced_threads=0 / nr=0 / decimate=1 / interlaced=0 / bluray_compat=0 / constrained_intra=0 / bframes=3 / b_pyramid=2 / b_adapt=2 / b_bias=0 / direct=3 / weightb=1 / open_gop=0 / weightp=2 / keyint=240 / keyint_min=23 / scenecut=40 / intra_refresh=0 / rc_lookahead=60 / rc=crf / mbtree=1 / crf=19.0 / qcomp=0.60 / qpmin=0 / qpmax=69 / qpstep=4 / vbv_maxrate=17500 / vbv_bufsize=17500 / crf_max=0.0 / nal_hrd=none / filler=0 / ip_ratio=1.40 / aq=1:1.00
Encoded date                             : UTC 2016-04-04 23:48:01
Tagged date                              : UTC 2016-04-04 23:48:04
Color range                              : Limited
Matrix coefficients                      : BT.709

Audio
ID                                       : 2
Format                                   : AAC
Format/Info                              : Advanced Audio Codec
Format profile                           : LC
Codec ID                                 : 40
Duration                                 : 43mn 52s
Bit rate mode                            : Variable
Bit rate                                 : 111 Kbps
Maximum bit rate                         : 133 Kbps
Channel(s)                               : 2 channels
Channel positions                        : Front: L R
Sampling rate                            : 44.1 KHz
Compression mode                         : Lossy
Stream size                              : 34.7 MiB (13%)
Encoded date                             : UTC 2016-04-04 23:26:25
Tagged date                              : UTC 2016-04-04 23:48:04




Скачать 12.обезьян.12.Monkeys.(Сезон.02.серия.01.из.13).(Дэвид.Гроссман.Майкл.Ваксман.Джон.Бэдэм).[2016.фантастика.триллер.драма.детектив.приключения.HDTVRip-AVC].[Sub].(Rus).+.[Orig].(Eng).torrent без регистрации
Золото ЗОЛОТАЯ РАЗДАЧА! СКАЧАННОЕ НЕ ЗАСЧИТЫВАЕТСЯ! Золото
Дата: Зарегистрирован   [ Тип: внутренний ] Как тут cкачать?
MAGNET ссылка
MAGNET ссылка


Скачать .torrent

11 KB

Статус: проверено DHT
Скачан: торрент - 38 раз, раздача полностью - 1 раз
Размер: 258 MB
Оценка:  - (Голосов: 0)
Поблагодарили: 0
Поделиться ссылкой на эту раздачу с друзьями:
В контактеFacebookОдноклассникиTwitterLivejournalМой МирLiveinternet
 

 
Показать сообщения:    


Вы не можете начинать темы
Вы не можете отвечать на сообщения
Вы не можете редактировать свои сообщения
Вы не можете удалять свои сообщения
Вы не можете голосовать в опросах
Вы не можете прикреплять файлы к сообщениям
Вы можете скачивать файлы