Loading...
Error

Скачать Долл и Эм / Doll and Em (сезон 01) (Азазель Джейкобс) [2014, комедия, HDTVRip] [DVO (HamsterStudio)] торрент без регистрации

 
Статистика раздачи
Размер:  1,07 GB   |    Скачан:  85 раз
Сидов:  4  [  0 KB/s  ]  
 
Автор Сообщение

МихаНЕзатор

[] 

Информация о фильме
Название: Долл и Эм
Оригинальное название: Doll & Em
Год выхода: 2014
Жанр: комедия
Режиссер: Азазель Джейкобс

В ролях: Эмили Мортимер, Долли Уэллс, Джонатан Кэйк, Elsie Richter, Ezra Richter, Миша Рихтер, Михаил Барышников, Оливия Уайлд, Эван Рэйчел Вуд, Аарон Химельштейн

О фильме: «Долл и Эм» — британская комедия о прелестях и ужасах женской дружбы. Только дружба здесь придумана не армией сценаристов: авторы и главные актрисы шоу, Эмили Мортимер и Долли Уэллс, — лучшие подруги и за кадром, в повседневной жизни. Комедийная коллизия «Долл и Эм» проста: как быть, когда твоя лучшая подруга вдруг становится голливудской звездой, а ты оказываешься в должности ее персонального ассистента? Совместная работа становится серьезным испытанием для дружбы Эм и Долл. Зрителю предстоит пережить целую гамму чувств, от любви до ненависти, — и без фальши.



Релиз от: HamsterStudio

Страна: Великобритания
Продолжительность: ~00:22:00 серия
Перевод: Любительский многоголосый [HamsterStudio]

Файл
Кодек: XviD
Качество: HDTVRip
Видео: 720x400, 1 085 Kbps, 25.000 fps
Звук: MP3, 128 кб/с (2 ch)

АНОНСЫ ПОПУЛЯРНЫХ РАЗДАЧ


Торрент обновлён, добавлена 6-я серия!
General
Complete name : /home/roma/Відео/Долл и Эм (Doll & Em)/Doll.&.Em.s01e01.HamsterStudio.avi
Format : AVI
Format/Info : Audio Video Interleave
File size : 193 MiB
Duration : 22mn 3s
Overall bit rate : 1 223 Kbps
Writing application : VirtualDubMod 1.5.10.2 (build 2540/release)
Writing library : VirtualDubMod build 2540/release

Video
ID : 0
Format : MPEG-4 Visual
Format profile : Advanced Simple@L5
Format settings, BVOP : 2
Format settings, QPel : No
Format settings, GMC : No warppoints
Format settings, Matrix : Default (H.263)
Muxing mode : Packed bitstream
Codec ID : XVID
Codec ID/Hint : XviD
Duration : 22mn 3s
Bit rate : 1 085 Kbps
Width : 720 pixels
Height : 400 pixels
Display aspect ratio : 16:9
Frame rate : 25.000 fps
Color space : YUV
Chroma subsampling : 4:2:0
Bit depth : 8 bits
Scan type : Progressive
Compression mode : Lossy
Bits/(Pixel*Frame) : 0.151
Stream size : 171 MiB (89%)
Writing library : XviD 67

Audio
ID : 1
Format : MPEG Audio
Format version : Version 1
Format profile : Layer 3
Codec ID : 55
Codec ID/Hint : MP3
Duration : 22mn 3s
Bit rate mode : Constant
Bit rate : 128 Kbps
Channel(s) : 2 channels
Sampling rate : 48.0 KHz
Compression mode : Lossy
Stream size : 20.2 MiB (10%)
Alignment : Aligned on interleaves
Interleave, duration : 40 ms (1.00 video frame)
Interleave, preload duration : 504 ms
Внимание! Раздача ведётся путём добавления новых серий.
При каждом добавлении создётся новый торрент. Чтобы начать докачку новой серии, пользователям необходимо сделать следующее:
1) остановить скачивание,
2) удалить старый торрент у себя из клиента (старые серии удалять не надо),
3) скачать новый торрент и запустить его у себя в клиенте вместо старого, при этом указать клиенту путь в старую папку куда и должно происходить скачивание новых серий.
Ваш клиент при этом должен произвести хеширование (проверку) старой папки (если не производит сам - помогите ему сделать это), и будет докачивать только те серии которых у вас ещё нет. Старые серии при этом не удаляются, а продолжают раздаваться!
Eсли вы уже удалили старые серии, то предотвратить повторную закачку старых серий можно, отжав галочку в соответсвующих местах при запуске нового торрента.



Скачать Долл.и.Эм.Doll.and.Em.(сезон.01).(Азазель.Джейкобс).[2014.комедия.HDTVRip].[DVO.(HamsterStudio)].torrent без регистрации
Золото ЗОЛОТАЯ РАЗДАЧА! СКАЧАННОЕ НЕ ЗАСЧИТЫВАЕТСЯ! Золото
Дата: Зарегистрирован   [ Тип: внешний ] Как тут cкачать?
MAGNET ссылка
MAGNET ссылка


Скачать .torrent

3 KB

Статус: проверено DHT
Скачан: торрент - 85 раз, раздача полностью - 0 раз
Размер: 1,07 GB
Оценка:  - (Голосов: 0)
Поблагодарили: 0
Поделиться ссылкой на эту раздачу с друзьями:
В контактеFacebookОдноклассникиTwitterLivejournalМой МирLiveinternet
 

 
Показать сообщения:    


Вы не можете начинать темы
Вы не можете отвечать на сообщения
Вы не можете редактировать свои сообщения
Вы не можете удалять свои сообщения
Вы не можете голосовать в опросах
Вы не можете прикреплять файлы к сообщениям
Вы можете скачивать файлы