Loading...
Error

Скачать Джек Айриш / Jack Irish (сезон 03) (Киран Дарси-Смит и др.) [2016, драма, криминал, детектив, WEB-DL] [720р] [MVO (FocusStudio)]+[Eng]+[Sub Rus] торрент без регистрации

 
Статистика раздачи
Размер:  11,03 GB   |    Скачан:  47 раз
Сидов:  1  [  0 KB/s  ]  
 
Автор Сообщение

МихаНЕзатор

[] 

Название: Джек Айриш
Оригинальное название: Jack Irish
Год выхода: 2016
Жанр: драма, криминал, детектив
Режиссер: Киран Дарси-Смит, Дэниэл Неттхейм, Марк Джофф

В ролях: Гай Пирс, Марта Дюссельдорп, Аарон Педерсен, Рой Биллинг, Шэйн Джейкобсон, Дэмиен Ричардсон, Вадим Гловна, Колин Фрилз, Эмма Бут, Стив Бисли, Маршалл Напье, Риз Малдун, Тотти Голдсмит, Колин Хэй, Николас Белл, Дон Хани, Диана Гленн, Мартин Сакс, Бэрри Хамфриз и др.

Описание сериале: Джек Айриш (Гай Пирс) - человек, пытающийся вновь собрать свою жизнь воедино. Бывший адвокат, чей мир взорвался после того, как его жену Изабель убил клиент, Джек попытался полностью раствориться в алкоголе. Впрочем, благодаря друзьям он не слишком преуспел в этой попытке. Он бросил заниматься уголовным правом и сейчас просто живет полноценной "мужской жизнью": спорт, выпивка, искусство, ставки, драки, редкая любовь...
Он работает на Гарри Странга, выбивая долги и помогая манипулировать ставками на скачках. Еще его можно найти в мебельной мастерской Чарли Тауба, где он обучается старинным методам работы с деревом. А его вторым домом стал паб Принц Пруссии - последняя цитадель футбольного клуба Фицрой, легендой которого был его отец. Он успешно избегает своего прошлого, до тех пор, пока прошлое не находит его само...


Релиз:

Страна: Австралия
Продолжительность: ~00:55:00
Перевод: Профессиональный (многоголосый закадровый) FocusStudio
Субтитры: Русские (форсированные)
Реклама: Отсутствует

Файл
Формат: MKV
Качество: WEB-DL 720р
Видео: AVC, 960@1280x720 (16:9), 25 fps, ~3900 kbps
Аудио RUS: AC3, 48 kHz, 6 ch, 384 kbps, CBR
Аудио ENG: AC3, 48 kHz, 6 ch, 384 kbps, CBR

АНОНСЫ ПОПУЛЯРНЫХ РАЗДАЧ
Format : Matroska
Format version : Version 4 / Version 2
File size : 1.81 GiB
Duration : 54mn 40s
Overall bit rate : 4 732 Kbps
Movie name : Jack Irish 3x1 @ FocusStudio
Encoded date : UTC 2016-04-01 18:12:46
Writing application : mkvmerge v8.5.2 ('Crosses') 64bit
Writing library : libebml v1.3.3 + libmatroska v1.4.4
Video
ID : 1
Format : AVC
Format/Info : Advanced Video Codec
Format profile : Main@L3.1
Format settings, CABAC : No
Format settings, ReFrames : 2 frames
Codec ID : V_MPEG4/ISO/AVC
Duration : 54mn 40s
Bit rate : 3 870 Kbps
Width : 960 pixels
Height : 720 pixels
Display aspect ratio : 16:9
Frame rate mode : Constant
Frame rate : 25.000 fps
Color space : YUV
Chroma subsampling : 4:2:0
Bit depth : 8 bits
Scan type : Progressive
Bits/(Pixel*Frame) : 0.224
Stream size : 1.48 GiB (82%)
Language : English
Default : Yes
Forced : No
Color range : Limited
Color primaries : BT.709
Transfer characteristics : BT.709
Matrix coefficients : BT.709
Audio #1
ID : 2
Format : AC-3
Format/Info : Audio Coding 3
Mode extension : CM (complete main)
Format settings, Endianness : Big
Codec ID : A_AC3
Duration : 54mn 40s
Bit rate mode : Constant
Bit rate : 384 Kbps
Channel(s) : 6 channels
Channel positions : Front: L C R, Side: L R, LFE
Sampling rate : 48.0 KHz
Compression mode : Lossy
Stream size : 150 MiB (8%)
Title : MVO FocuStudio
Language : Russian
Default : Yes
Forced : No
Audio #2
ID : 3
Format : AC-3
Format/Info : Audio Coding 3
Mode extension : CM (complete main)
Format settings, Endianness : Big
Codec ID : A_AC3
Duration : 54mn 40s
Bit rate mode : Constant
Bit rate : 384 Kbps
Channel(s) : 6 channels
Channel positions : Front: L C R, Side: L R, LFE
Sampling rate : 48.0 KHz
Compression mode : Lossy
Stream size : 150 MiB (8%)
Language : English
Default : No
Forced : No



Скачать Джек.Айриш.Jack.Irish.(сезон.03).(Киран.Дарси-Смит.и.др.).[2016.драма.криминал.детектив.WEB-DL].[720р].[MVO.(FocusStudio)]+[Eng]+[Sub.Rus].torrent без регистрации
Золото ЗОЛОТАЯ РАЗДАЧА! СКАЧАННОЕ НЕ ЗАСЧИТЫВАЕТСЯ! Золото
Дата: Зарегистрирован   [ Тип: внутренний ] Как тут cкачать?
MAGNET ссылка
MAGNET ссылка


Скачать .torrent

111 KB

Статус: проверено DHT
Скачан: торрент - 47 раз, раздача полностью - 8 раз
Размер: 11,03 GB
Оценка:  - (Голосов: 0)
Поблагодарили: 0
Поделиться ссылкой на эту раздачу с друзьями:
В контактеFacebookОдноклассникиTwitterLivejournalМой МирLiveinternet
 

 
Показать сообщения:    


Вы не можете начинать темы
Вы не можете отвечать на сообщения
Вы не можете редактировать свои сообщения
Вы не можете удалять свои сообщения
Вы не можете голосовать в опросах
Вы не можете прикреплять файлы к сообщениям
Вы можете скачивать файлы