Loading...
Error

Скачать Остаться в живых / Stay Alive (Уильям Брент Белл) [2006, ужасы, триллер, WEB-DLRip-AVC] [Theatrical Cut] [Dub] торрент без регистрации

 
Статистика раздачи
Размер:  2,17 GB   |    Скачан:  44 раза

Полного источника не было: 19 минут

 
Автор Сообщение

Marsianka

[] 

Производство: США, Endgame Entertainment, Hollywood Pictures...
Жанр: ужасы, триллер

Режиссер: Уильям Брент Белл
Актеры: Джон Фостер, Самира Армстронг, Фрэнки Муниз, Джимми Симпсон, Уенделл Пирс, Майло Вентимилья, София Буш, Адам Голдберг, Билли Слотер, Николь Оппермэнн

Описание:
Группа подростков из Нью-Орлеана просто помешана на пугающей ролевой видео-игре — «Остаться в живых». Суть игры — разыгрывать леденящие душу истории из жизни таинственной аристократки, которая жила в 17 веке и носила прозвище «Кровавая графиня». Неожиданно один за другим подростки начинают погибать, причем убивают их тем же изощренным способом, что и их персонажей. Жестокий вымысел все теснее и теснее переплетается с реальностью… Ребятам нужно успеть победить порочную и беспощадную «Кровавую графиню». Им нужно остаться в живых…


Возраст: 16+ (зрителям, достигшим 16 лет)
Рейтинг MPAA: PG-13 (детям до 13 лет просмотр нежелателен)
Дата мировой премьеры: 24 марта 2006
Дата российской премьеры: 11 мая 2006, «Парадиз»
Дата выхода DVD релиза: 27 января 2009, «Парадиз Медиа»

Релиз от: K.E.N (NNM-CLUB)
Продолжительность: 01:25:25
Качество видео: WEB-DLRip-AVC
Перевод: Дублированный
Субтитры: Отсутствуют

Видео: AVC, 1024x428 (2.35:1), 23.976 fps, 2 788 Kbps (0.265 bit/pixel)
Аудио #1: AC-3, 48.0 KHz, 6 ch, 448 Kbps, CBR (Russian)
Аудио #2: AC-3, 48.0 KHz, 6 ch, 384 Kbps, CBR (English)

Формат : Matroska
Версия формата : Version 2
Размер файла : 2,17 Гбайт
Продолжительность : 1 ч. 25 м.
Общий поток : 3621 Кбит/сек
Дата кодирования : UTC 2016-04-06 09:31:28
Программа кодирования : mkvmerge v5.3.0 ('I could have danced') built on Feb 9 2012 10:38:07
Библиотека кодирования : libebml v1.2.3 + libmatroska v1.3.0
Attachment : Yes

Видео
Идентификатор : 1
Формат : AVC
Формат/Информация : Advanced Video Codec
Профиль формата : High@L4.1
Параметр CABAC формата : Да
Параметр ReFrames формата : 9 кадров
Идентификатор кодека : V_MPEG4/ISO/AVC
Продолжительность : 1 ч. 25 м.
Битрейт : 2788 Кбит/сек
Ширина : 1024 пикселя
Высота : 428 пикселей
Соотношение сторон : 2,40:1
Режим частоты кадров : Постоянный
Частота кадров : 23,976 кадра/сек
Цветовое пространство : YUV
Субдискретизация насыщенности : 4:2:0
Битовая глубина : 8 бит
Тип развёртки : Прогрессивная
Бит/(Пиксели*Кадры) : 0.265
Размер потока : 1,63 Гбайт (75%)
Библиотека кодирования : x264 core 146 r2538 121396c
Настройки программы : cabac=1 / ref=9 / deblock=1:-2:-2 / analyse=0x3:0x133 / me=umh / subme=10 / psy=1 / psy_rd=1.00:0.10 / mixed_ref=1 / me_range=32 / chroma_me=1 / trellis=2 / 8x8dct=1 / cqm=0 / deadzone=21,11 / fast_pskip=0 / chroma_qp_offset=-3 / threads=12 / lookahead_threads=2 / sliced_threads=0 / nr=0 / decimate=0 / interlaced=0 / bluray_compat=0 / constrained_intra=0 / bframes=7 / b_pyramid=2 / b_adapt=2 / b_bias=0 / direct=3 / weightb=1 / open_gop=0 / weightp=2 / keyint=240 / keyint_min=23 / scenecut=40 / intra_refresh=0 / rc=2pass / mbtree=0 / bitrate=2788 / ratetol=1.0 / qcomp=0.60 / qpmin=0 / qpmax=69 / qpstep=4 / cplxblur=20.0 / qblur=0.5 / ip_ratio=1.40 / pb_ratio=1.30 / aq=2:0.70
Default : Да
Forced : Нет

Аудио #1
Идентификатор : 2
Формат : AC-3
Формат/Информация : Audio Coding 3
Расширение режима : CM (complete main)
Параметр Endianness формата : Big
Идентификатор кодека : A_AC3
Продолжительность : 1 ч. 25 м.
Вид битрейта : Постоянный
Битрейт : 448 Кбит/сек
Каналы : 6 каналов
Расположение каналов : Front: L C R, Side: L R, LFE
Частота : 48,0 КГц
Битовая глубина : 16 бит
Метод сжатия : С потерями
Размер потока : 275 Мбайт (12%)
Заголовок : Дублированный
Язык : Russian
Default : Да
Forced : Нет

Аудио #2
Идентификатор : 3
Формат : AC-3
Формат/Информация : Audio Coding 3
Расширение режима : CM (complete main)
Параметр Endianness формата : Big
Идентификатор кодека : A_AC3
Продолжительность : 1 ч. 25 м.
Вид битрейта : Постоянный
Битрейт : 384 Кбит/сек
Каналы : 6 каналов
Расположение каналов : Front: L C R, Side: L R, LFE
Частота : 48,0 КГц
Битовая глубина : 16 бит
Метод сжатия : С потерями
Размер потока : 236 Мбайт (11%)
Заголовок : оригинал
Язык : English
Default : Нет
Forced : Нет

Меню
00:00:00.000 : en:Begin
00:03:26.000 : en:Loomis
00:07:37.000 : en:Grief
00:12:09.000 : en:Game
00:14:26.000 : en:Mobilize
00:16:48.000 : en:Recite
00:20:34.000 : en:Countess
00:23:37.000 : en:Office
00:26:00.000 : en:Play
00:33:41.000 : en:Research
00:36:41.000 : en:Drive
00:40:01.000 : en:Think
00:45:27.000 : en:Location
00:50:04.000 : en:Nailed
00:54:14.000 : en:House
01:01:01.000 : en:Run
01:06:56.000 : en:Cemetery
01:11:52.000 : en:Awaken
01:16:50.000 : en:Over
01:17:59.000 : en:Credits



Скачать Остаться.в.живых.Stay.Alive.(Уильям.Брент.Белл).[2006.ужасы.триллер.WEB-DLRip-AVC].[Theatrical.Cut].[Dub].torrent без регистрации
Золото ЗОЛОТАЯ РАЗДАЧА! СКАЧАННОЕ НЕ ЗАСЧИТЫВАЕТСЯ! Золото
Дата: Зарегистрирован   [ Тип: внутренний ] Как тут cкачать?
MAGNET ссылка
MAGNET ссылка


Скачать .torrent

12 KB

Статус: проверено DHT
Скачан: торрент - 44 раз, раздача полностью - 2 раз
Размер: 2,17 GB
Оценка:  5 (Голосов: 1)
Поблагодарили: 6
Поделиться ссылкой на эту раздачу с друзьями:
В контактеFacebookОдноклассникиTwitterLivejournalМой МирLiveinternet
 

 
Показать сообщения:    


Вы не можете начинать темы
Вы не можете отвечать на сообщения
Вы не можете редактировать свои сообщения
Вы не можете удалять свои сообщения
Вы не можете голосовать в опросах
Вы не можете прикреплять файлы к сообщениям
Вы можете скачивать файлы