Loading...
Error

Скачать Таинственный портал / Foreign Exchange (01-26 из 26) (Деклан Имис, Джеймс Богл) [2004, фэнтези, приключения, детский, DVB] [MVO] торрент без регистрации

 
Статистика раздачи
Размер:  16,27 GB   |    Скачан:  29 раз
Сидов:  1  [  0 KB/s  ]  
 
Автор Сообщение

МихаНЕзатор

[] 

Информация о фильме
Название: Таинственный портал
Оригинальное название: Foreign Exchange
Год выхода: 2004
Жанр: фэнтези, приключения, детский
Режиссер: Деклан Имис, Джеймс Богл

В ролях: Захари Гарред, Линн Стайлз, Даниэль Фокс-Кларк, Роберт Шиэн, Барбара Гриффин, Питер Динин, Кирсти Хиллхаус, Грег МакНейлл, Джоэль Тернер, Челси Джонс

Описание: Австралийский школьник Бретт Миллер переезжает в новый дом, в подвале которого находит портал в другое измерение. Пройдя сквозь него, Бретт оказывается в Ирландии в школе-пансионе. Там он знакомится с Ханной, которая помогает ему выпутаться из неприятной ситуации и в награду просит показать ей Австралию.



Страна: Австралия, Ирландия
Продолжительность: 26 x ~24 мин.
Перевод: Профессиональный многоголосый закадровый [СТС '2007]

Файл
Формат: MPEG-PS
Качество: DVB
Видео: 720x576, (4:3), ~3500 Кбит/сек, MPEG2, 25,000 кадров/сек
Аудио 2 канала, 192 Кбит/сек, MPEG1, 48,0 КГц

АНОНСЫ ПОПУЛЯРНЫХ РАЗДАЧ
Общее
Полное имя : E:FilmSeason 11x01 Portal [СТС].mpg
Формат : MPEG-PS
Размер файла : 630 Мбайт
Продолжительность : 24 м.
Режим общего битрейта : Переменный
Общий поток : 3671 Кбит/сек

Видео
Идентификатор : 224 (0xE0)
Формат : MPEG Video
Версия формата : Version 2
Профиль формата : Main@Main
Параметр BVOP формата : Да
Параметр матрицы формата : Выборочная
Параметр GOP формата : M=3, N=12
Структура изображения : Frame
Продолжительность : 23 м.
Вид битрейта : Переменный
Битрейт : 3406 Кбит/сек
Максимальный битрейт : 5000 Кбит/сек
Ширина : 720 пикселей
Высота : 576 пикселей
Соотношение сторон : 4:3
Частота кадров : 25,000 кадров/сек
Стандарт вещания : PAL
Цветовое пространство : YUV
Субдискретизация насыщенности : 4:2:0
Битовая глубина : 8 бит
Тип развёртки : Чересстрочная
Порядок развёртки : Верхнее поле первое
Метод сжатия : С потерями
Бит/(Пиксели*Кадры) : 0.328
Временной код первого кадра : 00:00:00:00
Оригинал временного кода : Group of pictures header
GOP, открыто/закрыто : Открыто
GOP, открыто/закрыто на первом кадре : Закрыто
Размер потока : 585 Мбайт (93%)

Аудио
Идентификатор : 192 (0xC0)
Формат : MPEG Audio
Версия формата : Version 1
Профиль формата : Layer 2
Продолжительность : 24 м.
Вид битрейта : Постоянный
Битрейт : 192 Кбит/сек
Каналы : 2 канала
Частота : 48,0 КГц
Метод сжатия : С потерями
Размер потока : 33,0 Мбайт (5%)



Скачать Таинственный.портал.Foreign.Exchange.(01-26.из.26).(Деклан.Имис.Джеймс.Богл).[2004.фэнтези.приключения.детский.DVB].[MVO].torrent без регистрации
Золото ЗОЛОТАЯ РАЗДАЧА! СКАЧАННОЕ НЕ ЗАСЧИТЫВАЕТСЯ! Золото
Дата: Зарегистрирован   [ Тип: внутренний ] Как тут cкачать?
MAGNET ссылка
MAGNET ссылка


Скачать .torrent

43 KB

Статус: проверено DHT
Скачан: торрент - 29 раз, раздача полностью - 0 раз
Размер: 16,27 GB
Оценка:  - (Голосов: 0)
Поблагодарили: 0
Поделиться ссылкой на эту раздачу с друзьями:
В контактеFacebookОдноклассникиTwitterLivejournalМой МирLiveinternet
 

 
Показать сообщения:    


Вы не можете начинать темы
Вы не можете отвечать на сообщения
Вы не можете редактировать свои сообщения
Вы не можете удалять свои сообщения
Вы не можете голосовать в опросах
Вы не можете прикреплять файлы к сообщениям
Вы можете скачивать файлы