Loading...
Error

Скачать Вайнона Эрп / Wynonna Earp (сезон 01) (Рон Мерфи и др.) [2016, фэнтези, боевик, триллер, драма, детектив, вестерн, HDTV] [720р] [DVO (Sunshine Studio)] торрент без регистрации

 
Статистика раздачи
Размер:  13,99 GB   |    Скачан:  64 раза
Сидов:  1  [  0 KB/s  ]  
 
Автор Сообщение

МихаНЕзатор

[] 

Название: Вайнона Эрп
Оригинальное название: Wynonna Earp
Год выхода: 2016
Жанр: фэнтези, боевик, триллер, драма, детектив, вестерн
Режиссер: Рон Мерфи, Питер Стеббингс, Бретт Салливан

В ролях: Мелани Скрофано, Кэтерин Баррелл, Тим Розон, Шамир Андерсон, Грег Лосон, Анна Куик, Доминик Провост-Чалкли, Кейт Драммонд, Дэвид Нэйсом и др.

Описание сериала: Мистический вестерн о большой любительнице приключений. Смотрите онлайн Вайнона Эрп, чем приходится заниматься девушке и её друзьям. Так сложилось, что предок Вайноны был великий Уайетт Эрп, один из тех, кто покорил Дикий Запад. Как и он, девушка обожает пить виски и кутить с друзьями, но если Вайнона чует опасность, она превращается совсем в другого человека – смелую охотницу на нечисть. Никакие демоны её не страшат. Она отважно бросается в бой и отправляет все зловещие создания обратно в ад. Помогают ей в этом её верные друзья – настоящая поисковая команда. С их помощью и благодаря своему особому чутью Вайнона безошибочно определяет порождения другого мира.

Релиз группа:

Страна: США, Канада
Производство: Seven24 Films
Продолжительность: ~00:50:00
Перевод: Любительский (двухголосый) Sunshine Studio
Субтитры: Отсутствуют
Реклама: Присутствует

Файл
Формат: MKV
Качество: HDTV 720р
Видео: MPEG-4 AVC, ~ 3500 Кбит/с, 1280x720
Аудио: 48 kHz, AC3 Dolby Digital, 2/0 (L,R) ch, ~192 kbps

АНОНСЫ ПОПУЛЯРНЫХ РАЗДАЧ


Торрент обновлён, добавлена 13-я серия!
Формат : Matroska
Версия формата : Version 2
Размер файла : 1,11 Гбайт
Продолжительность : 42 м.
Общий поток : 3715 Кбит/сек
Дата кодирования : UTC 2016-04-09 15:54:28
Программа кодирования : mkvmerge v4.9.1 ('Ich will') built on Sep 21 2011 17:48:11
Библиотека кодирования : libebml v1.2.1 + libmatroska v1.2.0

Видео
Идентификатор : 1
Формат : AVC
Формат/Информация : Advanced Video Codec
Профиль формата : High@L3
Параметр CABAC формата : Нет
Параметр ReFrames формата : 1 кадр
Режим смешивания : Header stripping
Идентификатор кодека : V_MPEG4/ISO/AVC
Продолжительность : 42 м.
Битрейт : 3500 Кбит/сек
Ширина : 1280 пикселей
Высота : 720 пикселей
Соотношение сторон : 16:9
Режим частоты кадров : Постоянный
Частота кадров : 30,000 кадров/сек
Цветовое пространство : YUV
Субдискретизация насыщенности : 4:2:0
Битовая глубина : 8 бит
Тип развёртки : Прогрессивная
Бит/(Пиксели*Кадры) : 0.127
Размер потока : 1,03 Гбайт (93%)
Библиотека кодирования : x264 core 80 r1378+57 6f6b50a
Настройки программы : cabac=0 / ref=1 / deblock=1:0:0 / analyse=0x3:0x113 / me=hex / subme=7 / psy=1 / psy_rd=1.0:0.0 / mixed_ref=0 / me_range=16 / chroma_me=1 / trellis=0 / 8x8dct=1 / cqm=0 / deadzone=21,11 / fast_pskip=1 / chroma_qp_offset=-2 / threads=6 / sliced_threads=0 / nr=0 / decimate=1 / mbaff=0 / constrained_intra=0 / bframes=0 / wpredp=2 / keyint=250 / keyint_min=25 / scenecut=40 / rc_lookahead=40 / rc=abr / mbtree=1 / bitrate=3500 / ratetol=1.0 / qcomp=0.60 / qpmin=10 / qpmax=51 / qpstep=4 / ip_ratio=1.40 / aq=1:1.00
Default : Да
Forced : Нет

Аудио
Идентификатор : 2
Формат : AC-3
Формат/Информация : Audio Coding 3
Расширение режима : CM (complete main)
Параметр Endianness формата : Big
Режим смешивания : Header stripping
Идентификатор кодека : A_AC3
Продолжительность : 42 м.
Вид битрейта : Постоянный
Битрейт : 192 Кбит/сек
Каналы : 2 канала
Расположение каналов : Front: L R
Частота : 48,0 КГц
Частота кадров : 31,250 кадров/сек (1536 spf)
Метод сжатия : С потерями
Размер потока : 59,0 Мбайт (5%)
Default : Да
Forced : Нет
Внимание! Раздача ведётся путём добавления новых серий; при каждом добавлении создаётся новый торрент. Чтобы начать докачку новой серии, пользователям необходимо сделать следующее:
(1) остановить скачивание,
(2) удалить старый торрент у себя из клиента (старые серии удалять не надо),
(3) скачать новый торрент и запустить его у себя в клиенте вместо старого, при этом указать клиенту путь в старую папку куда и должно происходить скачивание новых серий.

Ваш клиент при этом должен произвести хеширование (проверку) старой папки (если не производит сам - помогите ему сделать это), и будет докачивать только те серии которых у вас ещё нет. Старые серии при этом не удаляются, а продолжают раздаваться!

Eсли вы уже удалили старые серии, то предотвратить повторную закачку старых серий можно, отжав галочку в соответсвующих местах при запуске нового торрента. По возможности, желательно не удалять старые серии как можно дольше чтобы релизёр не столько продолжал раздавать старые серии, а смог сконцентрироваться на новых.



Скачать Вайнона.Эрп.Wynonna.Earp.(сезон.01).(Рон.Мерфи.и.др.).[2016.фэнтези.боевик.триллер.драма.детектив.вестерн.HDTV].[720р].[DVO.(Sunshine.Studio)].torrent без регистрации
Золото ЗОЛОТАЯ РАЗДАЧА! СКАЧАННОЕ НЕ ЗАСЧИТЫВАЕТСЯ! Золото
Дата: Зарегистрирован   [ Тип: внутренний ] Как тут cкачать?
MAGNET ссылка
MAGNET ссылка


Скачать .torrent

72 KB

Статус: проверено DHT
Скачан: торрент - 64 раз, раздача полностью - 17 раз
Размер: 13,99 GB
Оценка:  - (Голосов: 0)
Поблагодарили: 1
Поделиться ссылкой на эту раздачу с друзьями:
В контактеFacebookОдноклассникиTwitterLivejournalМой МирLiveinternet
 

 
Показать сообщения:    


Вы не можете начинать темы
Вы не можете отвечать на сообщения
Вы не можете редактировать свои сообщения
Вы не можете удалять свои сообщения
Вы не можете голосовать в опросах
Вы не можете прикреплять файлы к сообщениям
Вы можете скачивать файлы