Loading...
Error

Скачать Хофф в записи / Hoff the Record (сезон 01) (Натали Бэйли) [2016, комедия, HDTVRip] [DVO (HamsterStudio)] торрент без регистрации

 
Статистика раздачи
Размер:  1,44 GB   |    Скачан:  44 раза
Сидов:  4  [  0 KB/s  ]  
 
Автор Сообщение

МихаНЕзатор

[] 

Информация о фильме
Название: Хофф в записи
Оригинальное название: Hoff the Record
Год выхода: 2015
Жанр: комедия
Режиссер: Натали Бэйли

В ролях: Азим Чаудхри, Фергус Крэйг, Бретт Голдстин, Дэвид Хассельхофф, Mark Quartley, Элла Смит, Ли Николас Харрис, Джесси Мортимер, Кристофер Биггинс. Оливер Куперсмит

О фильме: Дэвид Хассельхофф (Хофф), в прошлом невероятно популярный американский телевизионный актер и певец, знаменитый ролями в сериалах "Спасатели Малибу" и "Рыцарь Дорог".
После пяти разводов и затяжного невезения в Голливуде, Дэвид Хассельхофф приезжает в Англию, где надеется возродить свою карьеру.
Новый британский агент актера выбивается из сил, пытаясь пристроить своего подопечного хоть куда-нибудь, будь то реклама благотворительности или поддержка неправительственных организаций. С трудом ему удается договориться об участии Хоффа в независимом фильме, но радость оказывается не долгой - у "большой звезды" тут же начинаются трения с директором картины из-за творческих разногласий.



Релиз от: HamsterStudio

Страна: Великобритания
Продолжительность: ~00:29:00 серия
Перевод: Перевод: Любительский двухголосый закадровый [HamsterStudio]

Файл
Кодек: XviD
Качество: HDTVRip
Видео: 720x400, 1 088 кб/с, 25.000 fps
Звук: MP3, 128 кб/с (2 ch)

АНОНСЫ ПОПУЛЯРНЫХ РАЗДАЧ


Торрент обновлён, добавлена 6-я серия!
General
Complete name : /home/roma/Відео/Хофф в записи (Hoff the Record)/Hoff.The.Record.S01E01.avi
Format : AVI
Format/Info : Audio Video Interleave
File size : 261 MiB
Duration : 29mn 43s
Overall bit rate : 1 226 Kbps
Writing application : VirtualDubMod 1.5.10.2 (build 2540/release)
Writing library : VirtualDubMod build 2540/release

Video
ID : 0
Format : MPEG-4 Visual
Format profile : Advanced Simple@L5
Format settings, BVOP : 2
Format settings, QPel : No
Format settings, GMC : No warppoints
Format settings, Matrix : Default (H.263)
Muxing mode : Packed bitstream
Codec ID : XVID
Codec ID/Hint : XviD
Duration : 29mn 43s
Bit rate : 1 088 Kbps
Width : 720 pixels
Height : 400 pixels
Display aspect ratio : 16:9
Frame rate : 25.000 fps
Original frame rate : 25.068 fps
Color space : YUV
Chroma subsampling : 4:2:0
Bit depth : 8 bits
Scan type : Progressive
Compression mode : Lossy
Bits/(Pixel*Frame) : 0.151
Stream size : 231 MiB (89%)
Writing library : XviD 67

Audio
ID : 1
Format : MPEG Audio
Format version : Version 1
Format profile : Layer 3
Codec ID : 55
Codec ID/Hint : MP3
Duration : 29mn 43s
Bit rate mode : Constant
Bit rate : 128 Kbps
Channel(s) : 2 channels
Sampling rate : 48.0 KHz
Compression mode : Lossy
Stream size : 27.2 MiB (10%)
Alignment : Aligned on interleaves
Interleave, duration : 40 ms (1.00 video frame)
Interleave, preload duration : 504 ms
Когда раздача ведётся путём добавления новых серий, при каждом добавлении создётся новый торрент. Чтобы начать докачку новой серии, пользователям необходимо сделать следующее:
(1) остановить скачивание,
(2) удалить старый торрент у себя из клиента (старые серии удалять не надо),
(3) скачать новый торрент и запустить его у себя в клиенте вместо старого, при этом указать клиенту путь в старую папку, куда и должно происходить скачивание новых серий.
Ваш клиент при этом должен произвести хеширование (проверку) старой папки (если не производит сам - помогите ему сделать это), и будет докачивать только те серии, которых у вас ещё нет. Старые серии при этом не удаляются, а продолжают раздаваться!
Eсли вы уже удалили старые серии, то предотвратить повторную закачку старых серий можно, отжав галочку в соответсвующих местах при запуске нового торрента. По возможности, желательно не удалять старые серии как можно дольше, чтобы релизёр не столько продолжал раздавать старые серии, а смог сконцентрироваться на новых.



Скачать Хофф.в.записи.Hoff.the.Record.(сезон.01).(Натали.Бэйли).[2016.комедия.HDTVRip].[DVO.(HamsterStudio)].torrent без регистрации
Золото ЗОЛОТАЯ РАЗДАЧА! СКАЧАННОЕ НЕ ЗАСЧИТЫВАЕТСЯ! Золото
Дата: Зарегистрирован   [ Тип: внешний ] Как тут cкачать?
MAGNET ссылка
MAGNET ссылка


Скачать .torrent

3 KB

Статус: проверено DHT
Скачан: торрент - 44 раз, раздача полностью - 6 раз
Размер: 1,44 GB
Оценка:  - (Голосов: 0)
Поблагодарили: 1
Поделиться ссылкой на эту раздачу с друзьями:
В контактеFacebookОдноклассникиTwitterLivejournalМой МирLiveinternet
 

 
Показать сообщения:    


Вы не можете начинать темы
Вы не можете отвечать на сообщения
Вы не можете редактировать свои сообщения
Вы не можете удалять свои сообщения
Вы не можете голосовать в опросах
Вы не можете прикреплять файлы к сообщениям
Вы можете скачивать файлы