Loading...
Error

Скачать Супермаркет / Superstore (сезон 01) (Рубен Флейшер и др.) [2015, комедия, HDTVRip] [720p] [MVO (SunShineStuido)] торрент без регистрации

 
Статистика раздачи
Размер:  6,43 GB   |    Скачан:  47 раз
Сидов:  19  [  0 KB/s  ]   Личеров:  9  [  0 KB/s  ]  
 
Автор Сообщение

МихаНЕзатор

[] 

Информация о фильме
Название: Супермаркет
Оригинальное название: Superstore
Год выхода: 2015
Жанр: комедия
Режиссер: Рубен Флейшер, Майкл Патрик Джэнн, Энди Экерман

В ролях: Америка Феррера, Бен Фельдман, Николь Блум, Карен Энн Кабрера, Лорен Эш, Джонни Пембертон, Марк МакКинни, Колтон Данн, Прамод Кумар, Нико Сантос

О фильме: Сериал о большом разношерстном коллективе работников гипермаркета, которые на своём рабочем месте переживают множество приключений, несмотря на то, что территория их обитания ограничивается стенами магазина.



Релиз от: SunShineStuido

Страна: США
Продолжительность: ~00:22:00 серия
Перевод: Любительский многоголосый закадровый [L] [SunShineStuido]

Файл
Кодек: AVC
Качество: HDTVRip 720p
Видео: 1280x720, 25.000 fps, ~3400 кб/с
Звук: AC-3, 192 кб/с (2 ch)

АНОНСЫ ПОПУЛЯРНЫХ РАЗДАЧ
General
Unique ID : 193268114272430527339407345634054955865 (0x916615B93475A25A99CA7CA18D72E359)
Complete name : /home/roma/Відео/Супермаркет (Superstore)/Superstore.S01E06.mkv
Format : Matroska
Format version : Version 1
File size : 562 MiB
Duration : 21mn 40s
Overall bit rate : 3 621 Kbps
Encoded date : UTC 2016-01-19 21:30:59
Writing application : mkvmerge v2.4.0 ('Fumbling Towards Ecstasy') built on Oct 11 2008 20:13:15
Writing library : libebml v0.7.7 + libmatroska v0.8.1

Video
ID : 1
Format : AVC
Format/Info : Advanced Video Codec
Format profile : High@L3
Format settings, CABAC : No
Format settings, ReFrames : 1 frame
Codec ID : V_MPEG4/ISO/AVC
Duration : 21mn 40s
Bit rate : 3 400 Kbps
Width : 1 280 pixels
Height : 720 pixels
Display aspect ratio : 16:9
Frame rate mode : Constant
Frame rate : 25.000 fps
Color space : YUV
Chroma subsampling : 4:2:0
Bit depth : 8 bits
Scan type : Progressive
Bits/(Pixel*Frame) : 0.148
Stream size : 521 MiB (93%)
Writing library : x264 core 80 r1378+57 6f6b50a
Encoding settings : cabac=0 / ref=1 / deblock=1:0:0 / analyse=0x3:0x113 / me=hex / subme=7 / psy=1 / psy_rd=1.0:0.0 / mixed_ref=0 / me_range=16 / chroma_me=1 / trellis=0 / 8x8dct=1 / cqm=0 / deadzone=21,11 / fast_pskip=1 / chroma_qp_offset=-2 / threads=6 / sliced_threads=0 / nr=0 / decimate=1 / mbaff=0 / constrained_intra=0 / bframes=0 / wpredp=2 / keyint=250 / keyint_min=25 / scenecut=40 / rc_lookahead=40 / rc=abr / mbtree=1 / bitrate=3400 / ratetol=1.0 / qcomp=0.60 / qpmin=10 / qpmax=51 / qpstep=4 / ip_ratio=1.40 / aq=1:1.00
Default : Yes
Forced : No

Audio
ID : 2
Format : AC-3
Format/Info : Audio Coding 3
Mode extension : CM (complete main)
Format settings, Endianness : Big
Codec ID : A_AC3
Duration : 21mn 40s
Bit rate mode : Constant
Bit rate : 192 Kbps
Channel(s) : 2 channels
Channel positions : Front: L R
Sampling rate : 48.0 KHz
Frame rate : 31.250 fps (1536 spf)
Compression mode : Lossy
Stream size : 29.8 MiB (5%)
Default : Yes
Forced : No



Скачать Супермаркет.Superstore.(сезон.01).(Рубен.Флейшер.и.др.).[2015.комедия.HDTVRip].[720p].[MVO.(SunShineStuido)].torrent без регистрации
Золото ЗОЛОТАЯ РАЗДАЧА! СКАЧАННОЕ НЕ ЗАСЧИТЫВАЕТСЯ! Золото
Дата: Зарегистрирован   [ Тип: внешний ] Как тут cкачать?
MAGNET ссылка
MAGNET ссылка


Скачать .torrent

34 KB

Статус: проверено DHT
Скачан: торрент - 47 раз, раздача полностью - 28 раз
Размер: 6,43 GB
Оценка:  - (Голосов: 0)
Поблагодарили: 0
Поделиться ссылкой на эту раздачу с друзьями:
В контактеFacebookОдноклассникиTwitterLivejournalМой МирLiveinternet
 

 
Показать сообщения:    


Вы не можете начинать темы
Вы не можете отвечать на сообщения
Вы не можете редактировать свои сообщения
Вы не можете удалять свои сообщения
Вы не можете голосовать в опросах
Вы не можете прикреплять файлы к сообщениям
Вы можете скачивать файлы