Loading...
Error

Скачать Тихая ночь, смертельная ночь / Silent Night, Deadly Night (Чарльз Е. Селлер мл.) [1984, ужасы, триллер, BDRip-AVC] [AVO (Сергей Визгунов)]+[Sub] торрент без регистрации

 
Статистика раздачи
Размер:  2,17 GB   |    Скачан:  47 раз

Полного источника не было: 24 минуты

 
Автор Сообщение

Marsianka

[] 

Информация о фильме
Название: Тихая ночь, смертельная ночь
Оригинальное название: Silent Night, Deadly Night
Год выхода: 1994
Жанр: ужасы, триллер
Режиссер: Чарльз Е. Селлер мл.
В ролях: Лилиан Шовин, Гилмер МакКормик, Тони Неро, Роберт Брайан Уилсон, Бритт Лич, Нэнси Боргенихт, Х.Е.Д. Редфорд, Дэнни Вагнер, Линни Куигли, Лео Гетер

О фильме:
Жила-была одна семья, в которую входили — муж, жена и пара их маленьких сыновей. И вот, в канун рождества, решили они проведать своего деда. Так получилось, что один из детишек, тот что постарше, остался наедине со стариком. А дед, до этого не произнесший ни слова вдруг стал ему рассказывать всякие страшные вещи про Санта-Клаусов… На такого Санту и напарывается возвращающаяся от деда семья. В результате этой встречи в живых остаются только двое детей. Но это только начало истории…



Страна: США
Студия: TriStar Pictures, Slayride
Продолжительность: 01:24:54
Перевод: Авторский (одноголосый закадровый) Сергей Визгунов

Файл
Качество: BDRip-AVC
Видео: AVC, 1024x556 (16:9), 23.976 fps, 3 023 Kbps (0.221 bit/pixel)
Аудио #1: AC-3, 48.0 KHz, 2 ch, 192 Kbps, CBR (Russian)
Аудио #2: AC-3, 48.0 KHz, 6 ch, 448 Kbps, CBR (English)
Субтитры: Английские

Формат : Matroska
Версия формата : Version 2
Размер файла : 2,17 Гбайт
Продолжительность : 1 ч. 24 м.
Общий поток : 3665 Кбит/сек
Дата кодирования : UTC 2016-04-11 02:45:36
Программа кодирования : mkvmerge v5.3.0 ('I could have danced') built on Feb 9 2012 10:38:07
Библиотека кодирования : libebml v1.2.3 + libmatroska v1.3.0
Attachment : Yes

Видео
Идентификатор : 1
Формат : AVC
Формат/Информация : Advanced Video Codec
Профиль формата : High@L4.1
Параметр CABAC формата : Да
Параметр ReFrames формата : 9 кадров
Идентификатор кодека : V_MPEG4/ISO/AVC
Продолжительность : 1 ч. 24 м.
Битрейт : 3023 Кбит/сек
Ширина : 1024 пикселя
Высота : 556 пикселей
Соотношение сторон : 1,85:1
Режим частоты кадров : Постоянный
Частота кадров : 23,976 кадра/сек
Цветовое пространство : YUV
Субдискретизация насыщенности : 4:2:0
Битовая глубина : 8 бит
Тип развёртки : Прогрессивная
Бит/(Пиксели*Кадры) : 0.221
Размер потока : 1,75 Гбайт (81%)
Библиотека кодирования : x264 core 146 r2538 121396c
Настройки программы : cabac=1 / ref=9 / deblock=1:-3:-3 / analyse=0x3:0x133 / me=umh / subme=10 / psy=1 / psy_rd=1.00:0.10 / mixed_ref=1 / me_range=32 / chroma_me=1 / trellis=2 / 8x8dct=1 / cqm=0 / deadzone=21,11 / fast_pskip=0 / chroma_qp_offset=-3 / threads=12 / lookahead_threads=2 / sliced_threads=0 / nr=0 / decimate=0 / interlaced=0 / bluray_compat=0 / constrained_intra=0 / bframes=6 / b_pyramid=2 / b_adapt=2 / b_bias=0 / direct=3 / weightb=1 / open_gop=0 / weightp=2 / keyint=240 / keyint_min=23 / scenecut=40 / intra_refresh=0 / rc=2pass / mbtree=0 / bitrate=3023 / ratetol=1.0 / qcomp=0.60 / qpmin=0 / qpmax=69 / qpstep=4 / cplxblur=20.0 / qblur=0.5 / ip_ratio=1.40 / pb_ratio=1.30 / aq=1:0.70
Default : Да
Forced : Нет

Аудио #1
Идентификатор : 2
Формат : AC-3
Формат/Информация : Audio Coding 3
Расширение режима : CM (complete main)
Параметр Endianness формата : Big
Идентификатор кодека : A_AC3
Продолжительность : 1 ч. 24 м.
Вид битрейта : Постоянный
Битрейт : 192 Кбит/сек
Каналы : 2 канала
Расположение каналов : Front: L R
Частота : 48,0 КГц
Битовая глубина : 16 бит
Метод сжатия : С потерями
Размер потока : 117 Мбайт (5%)
Язык : Russian
Default : Да
Forced : Нет

Аудио #2
Идентификатор : 3
Формат : AC-3
Формат/Информация : Audio Coding 3
Расширение режима : CM (complete main)
Параметр Endianness формата : Big
Идентификатор кодека : A_AC3
Продолжительность : 1 ч. 24 м.
Вид битрейта : Постоянный
Битрейт : 448 Кбит/сек
Каналы : 6 каналов
Расположение каналов : Front: L C R, Side: L R, LFE
Частота : 48,0 КГц
Битовая глубина : 16 бит
Метод сжатия : С потерями
Размер потока : 272 Мбайт (12%)
Язык : English
Default : Нет
Forced : Нет

Текст
Идентификатор : 4
Формат : UTF-8
Идентификатор кодека : S_TEXT/UTF8
Идентификатор кодека/Информация : UTF-8 Plain Text
Язык : English
Default : Да
Forced : Нет

Меню
00:00:00.000 : en:00:00:00.000
00:01:53.322 : en:00:01:53.322
00:07:40.126 : en:00:07:40.126
00:13:22.010 : en:00:13:22.010
00:19:27.166 : en:00:19:27.166
00:25:36.660 : en:00:25:36.660
00:34:41.913 : en:00:34:41.913
00:52:00.242 : en:00:52:00.242
01:01:26.349 : en:01:01:26.349
01:08:57.008 : en:01:08:57.008
01:13:40.625 : en:01:13:40.625
01:22:38.203 : en:01:22:38.203
Релиз от: K.E.N (NNM-CLUB)



Скачать Тихая.ночь.смертельная.ночь.Silent.Night.Deadly.Night.(Чарльз.Е.Селлер.мл.).[1984.ужасы.триллер.BDRip-AVC].[AVO.(Сергей.Визгунов)]+[Sub].torrent без регистрации
Золото ЗОЛОТАЯ РАЗДАЧА! СКАЧАННОЕ НЕ ЗАСЧИТЫВАЕТСЯ! Золото
Дата: Зарегистрирован   [ Тип: внутренний ] Как тут cкачать?
MAGNET ссылка
MAGNET ссылка


Скачать .torrent

12 KB

Статус: проверено DHT
Скачан: торрент - 47 раз, раздача полностью - 5 раз
Размер: 2,17 GB
Оценка:  - (Голосов: 0)
Поблагодарили: 1
Поделиться ссылкой на эту раздачу с друзьями:
В контактеFacebookОдноклассникиTwitterLivejournalМой МирLiveinternet
 

 
Показать сообщения:    


Вы не можете начинать темы
Вы не можете отвечать на сообщения
Вы не можете редактировать свои сообщения
Вы не можете удалять свои сообщения
Вы не можете голосовать в опросах
Вы не можете прикреплять файлы к сообщениям
Вы можете скачивать файлы