Loading...
Error

Скачать Шоу Гэффигана / The Jim Gaffigan Show (01x01-07 из 15) (Стивен К. Цутида и др.) [2016, комедия, WEB-DLRip] [DVO (HamsterStudio)] торрент без регистрации

 
Статистика раздачи
Размер:  1,2 GB   |    Скачан:  50 раз
Сидов:  1  [  0 KB/s  ]  
 
Автор Сообщение

МихаНЕзатор

[] 

Информация о фильме
Название: Шоу Гэффигана
Оригинальное название: The Jim Gaffigan Show
Год выхода: 2015
Жанр: комедия
Режиссер: Стивен К. Цутида, Питер Лоэр, Тодд Бирман

В ролях: Джим Гэффиган, Эшли Уильямс, Майкл Йен Блэк, Кэйтлин Мюллер, Адам Голдберг, Ванесса Аспильяга, Тонгай Арнольд Чириса, Маколей Калкин

О фильме: «Шоу Гэффигана» – развлекательное автобиографическое телешоу, автором сценария, режиссером и главным действующим лицом стал известный американский комик Джим Гэффиган. Все, что рассказывает актер, происходило с ним, его близкими и друзьями в реальной жизни. В частности Джим делится воспоминаниями о том, как ему удалось наладить свою жизнь: завести семью, построить карьеру. Семейство Гэффиган воспитывает пятерых чудесных малышей. Джим нисколько не кривит душой, когда выносит на суд зрителей все свои достоинства и все недостатки. А еще наш герой просто обожает вкусно поесть.



Релиз от: HamsterStudio

Страна: США
Продолжительность: ~00:22:00 серия
Перевод: Любительский двухголосый [HamsterStudio]

Файл
Кодек: XviD
Качество: WEB-DLRip
Видео: 720x400, 1 084 Kbps, 23.976 (24000/1001) fps
Звук: MP3, 128 Kbps (2 ch)

АНОНСЫ ПОПУЛЯРНЫХ РАЗДАЧ


Торрент обновлён, добавлена 7-я серия!
General
Complete name : /home/roma/Відео/Шоу Гэффигана (The Jim Gaffigan Show)/The.Jim.Gaffigan.Show.S01E01.WEB-DLRip.HamsterStudio.avi
Format : AVI
Format/Info : Audio Video Interleave
File size : 188 MiB
Duration : 21mn 31s
Overall bit rate : 1 222 Kbps
Writing application : VirtualDubMod 1.5.10.2 (build 2540/release)
Writing library : VirtualDubMod build 2540/release

Video
ID : 0
Format : MPEG-4 Visual
Format profile : Advanced Simple@L5
Format settings, BVOP : 2
Format settings, QPel : No
Format settings, GMC : No warppoints
Format settings, Matrix : Default (H.263)
Muxing mode : Packed bitstream
Codec ID : XVID
Codec ID/Hint : XviD
Duration : 21mn 31s
Bit rate : 1 084 Kbps
Width : 720 pixels
Height : 400 pixels
Display aspect ratio : 16:9
Frame rate : 23.976 (24000/1001) fps
Color space : YUV
Chroma subsampling : 4:2:0
Bit depth : 8 bits
Scan type : Progressive
Compression mode : Lossy
Bits/(Pixel*Frame) : 0.157
Stream size : 167 MiB (89%)
Writing library : XviD 67

Audio
ID : 1
Format : MPEG Audio
Format version : Version 1
Format profile : Layer 3
Codec ID : 55
Codec ID/Hint : MP3
Duration : 21mn 31s
Bit rate mode : Constant
Bit rate : 128 Kbps
Channel(s) : 2 channels
Sampling rate : 48.0 KHz
Compression mode : Lossy
Stream size : 19.7 MiB (10%)
Alignment : Aligned on interleaves
Interleave, duration : 42 ms (1.00 video frame)
Interleave, preload duration : 504 ms
Когда раздача ведётся путём добавления новых серий, при каждом добавлении создётся новый торрент. Чтобы начать докачку новой серии, пользователям необходимо сделать следующее:
(1) остановить скачивание,
(2) удалить старый торрент у себя из клиента (старые серии удалять не надо),
(3) скачать новый торрент и запустить его у себя в клиенте вместо старого, при этом указать клиенту путь в старую папку, куда и должно происходить скачивание новых серий.
Ваш клиент при этом должен произвести хеширование (проверку) старой папки (если не производит сам - помогите ему сделать это), и будет докачивать только те серии, которых у вас ещё нет. Старые серии при этом не удаляются, а продолжают раздаваться!
Eсли вы уже удалили старые серии, то предотвратить повторную закачку старых серий можно, отжав галочку в соответсвующих местах при запуске нового торрента. По возможности, желательно не удалять старые серии как можно дольше, чтобы релизёр не столько продолжал раздавать старые серии, а смог сконцентрироваться на новых.



Скачать Шоу.Гэффигана.The.Jim.Gaffigan.Show.(01x01-07.из.15).(Стивен.К.Цутида.и.др.).[2016.комедия.WEB-DLRip].[DVO.(HamsterStudio)].torrent без регистрации
Золото ЗОЛОТАЯ РАЗДАЧА! СКАЧАННОЕ НЕ ЗАСЧИТЫВАЕТСЯ! Золото
Дата: Зарегистрирован   [ Тип: внутренний ] Как тут cкачать?
MAGNET ссылка
MAGNET ссылка


Скачать .torrent

26 KB

Статус: проверено DHT
Скачан: торрент - 50 раз, раздача полностью - 1 раз
Размер: 1,2 GB
Оценка:  - (Голосов: 0)
Поблагодарили: 0
Поделиться ссылкой на эту раздачу с друзьями:
В контактеFacebookОдноклассникиTwitterLivejournalМой МирLiveinternet
 

 
Показать сообщения:    


Вы не можете начинать темы
Вы не можете отвечать на сообщения
Вы не можете редактировать свои сообщения
Вы не можете удалять свои сообщения
Вы не можете голосовать в опросах
Вы не можете прикреплять файлы к сообщениям
Вы можете скачивать файлы