Loading...
Error

Скачать Белые пески / White Sands (Роджер Дональдсон) [1992, триллер, драма, криминал, HDTVRip] [MVO]+[AVO] торрент без регистрации

 
Статистика раздачи
Размер:  1,44 GB   |    Скачан:  33 раза
Сидов:  1  [  0 KB/s  ]  
 
Автор Сообщение

Marsianka

[] 

Информация о фильме
Название: Белые пески
Оригинальное название: White Sands
Год выхода: 1992
Жанр: триллер, драма, криминал
Режиссер: Роджер Дональдсон / Roger Donaldson
В ролях: Уиллем Дефо, Мэри Элизабет Мастрантонио, Микки Рурк, Сэмюэл Л. Джексон, М. Эммет Уолш, Джеймс Ребхорн, Мора Тирни, Бет Грант, Александр Никсей, Фредрик Лопез

О фильме:
Шериф из Нью-Мексико Рэй Долезал обнаруживает в пустыне труп с пистолетом в руке, а при нем чемоданчик с полумиллионом долларов. Рэй решает самостоятельно взяться за расследование.

Он выдает себя за убитого и, став участником крупной сделки по продаже наркотиков, попадает в паутину интриг, сплетенную подпольным торговцем оружием, продажным агентом ФБР и роковой красавицей. Спецслужбы, коррупция и наркомафия - рискованный коктейль, который грозит смертельной опасностью. Но Рэй из тех парней, которые бьются до конца...



Страна: СШАа
Продолжительность: 01:37:01
Перевод: Профессиональный многоголосый, Авторский (одноголосый, закадровый) Алексей Михалёв

Файл
Кодек: XviD
Качество: HDTVRip
Видео: 720x304, 25.000 fps, XviD build 73 ~1763 kbps
Аудио 1: 48 kHz, AC3, 2/0 (L,R) ch, ~160 kbps............Профессиональный многоголосый
Аудио 2: 48 kHz, AC3, 2/0 (L,R) ch, ~192 kbps............Авторский (одноголосый, закадровый) Алексей Михалёв
Общее
Полное имя : White.Sands.1992.HDTVRip.avi
Формат : AVI
Формат/Информация : Audio Video Interleave
Размер файла : 1,44 Гбайт
Продолжительность : 1 ч. 37 м.
Общий поток : 2130 Кбит/сек
Программа кодирования : VirtualDubMod 1.5.10.2 (build 2542/release)
Библиотека кодирования : VirtualDubMod build 2542/release

Видео
Идентификатор : 0
Формат : MPEG-4 Visual
Профиль формата : Advanced Simple@L5
Параметр BVOP формата : 1
Параметр QPel формата : Нет
Параметр GMC формата : Без точки перехода
Параметр матрицы формата : Выборочная
Идентификатор кодека : XVID
Идентификатор кодека/Подсказка : XviD
Продолжительность : 1 ч. 37 м.
Битрейт : 1763 Кбит/сек
Ширина : 720 пикс.
Высота : 304 пикс.
Соотношение сторон : 2,35:1
Частота кадров : 25,000 кадр/сек
Цветовое пространство : YUV
Подвыборка цветности : 4:2:0
Битовая глубина : 8 бит
Тип развёртки : Прогрессивная
Метод сжатия : С потерями
Бит/(Пиксели*Кадры) : 0.322
Размер потока : 1,19 Гбайт (83%)
Библиотека кодирования : XviD 73

Аудио #1
Идентификатор : 1
Формат : AC-3
Формат/Информация : Audio Coding 3
Расширение режима : CM (complete main)
Идентификатор кодека : 2000
Продолжительность : 1 ч. 37 м.
Вид битрейта : Постоянный
Битрейт : 160 Кбит/сек
Канал(ы) : 2 канала(ов)
Расположение каналов : Front: L R
Частота : 48,0 КГц
Битовая глубина : 16 бит
Метод сжатия : С потерями
Размер потока : 111 Мбайт (8%)
Выравнивание : Разделение по промежуткам
Продолжительность промежутка : 40 мс. (1,00 видеокадр)
Время предзагрузки промежутка : 500 ms

Аудио #2
Идентификатор : 2
Формат : AC-3
Формат/Информация : Audio Coding 3
Расширение режима : CM (complete main)
Идентификатор кодека : 2000
Продолжительность : 1 ч. 37 м.
Вид битрейта : Постоянный
Битрейт : 192 Кбит/сек
Канал(ы) : 2 канала(ов)
Расположение каналов : Front: L R
Частота : 48,0 КГц
Битовая глубина : 16 бит
Метод сжатия : С потерями
Размер потока : 133 Мбайт (9%)
Выравнивание : Разделение по промежуткам
Продолжительность промежутка : 40 мс. (1,00 видеокадр)
Время предзагрузки промежутка : 500 ms
Релиз от: Leon-masl



Скачать Белые.пески.White.Sands.(Роджер.Дональдсон).[1992.триллер.драма.криминал.HDTVRip].[MVO]+[AVO].torrent без регистрации
Золото ЗОЛОТАЯ РАЗДАЧА! СКАЧАННОЕ НЕ ЗАСЧИТЫВАЕТСЯ! Золото
Дата: Зарегистрирован   [ Тип: внутренний ] Как тут cкачать?
MAGNET ссылка
MAGNET ссылка


Скачать .torrent

15 KB

Статус: проверено DHT
Скачан: торрент - 33 раз, раздача полностью - 6 раз
Размер: 1,44 GB
Оценка:  - (Голосов: 0)
Поблагодарили: 0
Поделиться ссылкой на эту раздачу с друзьями:
В контактеFacebookОдноклассникиTwitterLivejournalМой МирLiveinternet
 

 
Показать сообщения:    


Вы не можете начинать темы
Вы не можете отвечать на сообщения
Вы не можете редактировать свои сообщения
Вы не можете удалять свои сообщения
Вы не можете голосовать в опросах
Вы не можете прикреплять файлы к сообщениям
Вы можете скачивать файлы