Loading...
Error

Скачать Охотники / Hunters (01x01-12 из 13) (Эмиль Левисетти и др.) [2016, фантастика, триллер, драма, криминал, HDTVRip] [DVO (HamsterStudio)] торрент без регистрации

 
Статистика раздачи
Размер:  4,88 GB   |    Скачан:  59 раз
Сидов:  80  [  0 KB/s  ]   Личеров:  255  [  0 KB/s  ]  
 
Автор Сообщение

МихаНЕзатор

[] 

Информация о фильме
Название: Охотники
Оригинальное название: Hunters
Год выхода: 2016
Жанр: фантастика, триллер, драма, криминал
Режиссер: Эмиль Левисетти, Глендин Айвин, Мат Кинг

В ролях: Нэйтан Филлипс, Бритни Олдфорд, Марк Коулз Смит, Льюис Фиц-Джералд, Сара Пирс, Лаура Гордон, Эдвина Рен, Shannon Berry, Serhat Caradee, Гарет Дейвис

О фильме: У Флинна Кэролла при невыясненных обстоятельствах погибает жена. Он входит в состав специального отряда по борьбе с терроризмом, чтобы противостоять тайной сети инопланетян-террористов на Земле.



Релиз от: HamsterStudio

Страна: США
Продолжительность: ~00:43:00 серия
Перевод: Любительский двухголосый [L2] [HamsterStudio]

Файл
Кодек: XviD
Качество: HDTVRip
Видео: 720x400, 1248 Kbps, 23.976 (24000/1001) fps
Звук: MP3, 128 Kbps (2 ch)

АНОНСЫ ПОПУЛЯРНЫХ РАЗДАЧ


Торрент обновлён, добавлена 12-я серия!
General
Complete name : /home/roma/Відео/Охотники (Hunters)/Hunters.S01.E01.HamsterStudio.avi
Format : AVI
Format/Info : Audio Video Interleave
File size : 426 MiB
Duration : 42mn 57s
Overall bit rate : 1 385 Kbps
Writing application : VirtualDubMod 1.5.10.2 (build 2540/release)
Writing library : VirtualDubMod build 2540/release

Video
ID : 0
Format : MPEG-4 Visual
Format profile : Advanced Simple@L5
Format settings, BVOP : 2
Format settings, QPel : No
Format settings, GMC : No warppoints
Format settings, Matrix : Default (H.263)
Muxing mode : Packed bitstream
Codec ID : XVID
Codec ID/Hint : XviD
Duration : 42mn 57s
Bit rate : 1 248 Kbps
Width : 720 pixels
Height : 400 pixels
Display aspect ratio : 16:9
Frame rate : 23.976 (24000/1001) fps
Color space : YUV
Chroma subsampling : 4:2:0
Bit depth : 8 bits
Scan type : Progressive
Compression mode : Lossy
Bits/(Pixel*Frame) : 0.181
Stream size : 383 MiB (90%)
Writing library : XviD 66

Audio
ID : 1
Format : MPEG Audio
Format version : Version 1
Format profile : Layer 3
Mode : Joint stereo
Mode extension : MS Stereo
Codec ID : 55
Codec ID/Hint : MP3
Duration : 42mn 57s
Bit rate mode : Constant
Bit rate : 128 Kbps
Channel(s) : 2 channels
Sampling rate : 48.0 KHz
Compression mode : Lossy
Stream size : 39.3 MiB (9%)
Alignment : Aligned on interleaves
Interleave, duration : 42 ms (1.00 video frame)
Interleave, preload duration : 504 ms
Writing library : LAME3.99r
Encoding settings : -m j -V 4 -q 2 -lowpass 17 -b 128
Когда раздача ведётся путём добавления новых серий, при каждом добавлении создётся новый торрент. Чтобы начать докачку новой серии, пользователям необходимо сделать следующее:
(1) остановить скачивание,
(2) удалить старый торрент у себя из клиента (старые серии удалять не надо),
(3) скачать новый торрент и запустить его у себя в клиенте вместо старого, при этом указать клиенту путь в старую папку, куда и должно происходить скачивание новых серий.
Ваш клиент при этом должен произвести хеширование (проверку) старой папки (если не производит сам - помогите ему сделать это), и будет докачивать только те серии, которых у вас ещё нет. Старые серии при этом не удаляются, а продолжают раздаваться!
Eсли вы уже удалили старые серии, то предотвратить повторную закачку старых серий можно, отжав галочку в соответсвующих местах при запуске нового торрента. По возможности, желательно не удалять старые серии как можно дольше, чтобы релизёр не столько продолжал раздавать старые серии, а смог сконцентрироваться на новых.



Скачать Охотники.Hunters.(01x01-12.из.13).(Эмиль.Левисетти.и.др.).[2016.фантастика.триллер.драма.криминал.HDTVRip].[DVO.(HamsterStudio)].torrent без регистрации
Золото ЗОЛОТАЯ РАЗДАЧА! СКАЧАННОЕ НЕ ЗАСЧИТЫВАЕТСЯ! Золото
Дата: Зарегистрирован   [ Тип: внешний ] Как тут cкачать?
MAGNET ссылка
MAGNET ссылка


Скачать .torrent

50 KB

Статус: проверено DHT
Скачан: торрент - 59 раз, раздача полностью - 24 раз
Размер: 4,88 GB
Оценка:  - (Голосов: 0)
Поблагодарили: 2
Поделиться ссылкой на эту раздачу с друзьями:
В контактеFacebookОдноклассникиTwitterLivejournalМой МирLiveinternet
 

 
Показать сообщения:    


Вы не можете начинать темы
Вы не можете отвечать на сообщения
Вы не можете редактировать свои сообщения
Вы не можете удалять свои сообщения
Вы не можете голосовать в опросах
Вы не можете прикреплять файлы к сообщениям
Вы можете скачивать файлы