Loading...
Error

Скачать Укуренные / Up in Smoke (Лу Адлер, Томми Чонг) [1978, комедия, музыка, HDRip-AVC] [AVO]+[Оригинал]+[Sub]x2 торрент без регистрации

 
Статистика раздачи
Размер:  2,17 GB   |    Скачан:  47 раз
Сидов:  1  [  0 KB/s  ]  
 
Автор Сообщение

Marsianka

[] 

Информация о фильме
Название: Укуренные
Оригинальное название: Up in Smoke
Год выхода: 1978
Жанр: комедия, музыка
Режиссер: Лу Адлер, Томми Чонг
В ролях: Чич Марин, Томми Чонг, Стразер Мартин, Эди Адамс, Харольд Фонг, Ричард Ново, Джейн Модер, Пэм Билле, Артур Робертс и др.

О фильме:
Двое незадачливых хиппи пытаются попасть в Лос-Анджелес, но, полностью укурившись, теряются где-то в Мексике. Косяки размером с хот-дог и дети цветов, перебравшие с дозой…



Страна: США
Продолжительность: 01:25:47
Перевод: Профессиональный (одноголосый)

Файл
Кодек: h.264
Качество: HDRip-AVC
Видео: MPEG-4, 1128x480, 23.976 fps ~2732 kbps

1) AC3 6 ch, 48 kHz ~448 kbps - AVO [Гланц]
2) AC3 6 ch, 48 kHz ~448 kbps - Original
Субтитры: Русские, английские
General
Unique ID : 231501428305445686649630762683478628028 (0xAE298DA4B01761F4BEE43845C894D6BC)
Complete name : E:VideoУкуренные (1978).mkv
Format : Matroska
Format version : Version 4 / Version 2
File size : 2.17 GiB
Duration : 1h 25mn
Overall bit rate : 3 629 Kbps
Encoded date : UTC 2016-04-14 10:34:04 / UTC
Writing application : mkvmerge v9.0.1 ('Obstacles') 64bit
Writing library : libebml v1.3.3 + libmatroska v1.4.4 / Lavf55.12.0
Cover : Yes
Attachments : Cover.jpg

Video
ID : 1
Format : AVC
Format/Info : Advanced Video Codec
Format profile : High@L4.1
Format settings, CABAC : Yes
Format settings, ReFrames : 11 frames
Codec ID : V_MPEG4/ISO/AVC
Duration : 1h 25mn
Bit rate : 2 732 Kbps
Width : 1 128 pixels
Height : 480 pixels
Display aspect ratio : 2.35:1
Frame rate mode : Constant
Frame rate : 23.976 (24000/1001) fps
Color space : YUV
Chroma subsampling : 4:2:0
Bit depth : 8 bits
Scan type : Progressive
Bits/(Pixel*Frame) : 0.210
Stream size : 1.59 GiB (73%)
Title : MPEG-4, 1128x480, 23.976 fps ~2732 kbps
Writing library : x264 core 142 r2479 dd79a61
Encoding settings : cabac=1 / ref=11 / deblock=1:-2:-2 / analyse=0x3:0x133 / me=umh / subme=11 / psy=1 / psy_rd=1.00:0.12 / mixed_ref=1 / me_range=32 / chroma_me=1 / trellis=2 / 8x8dct=1 / cqm=0 / deadzone=21,11 / fast_pskip=0 / chroma_qp_offset=-3 / threads=6 / lookahead_threads=1 / sliced_threads=0 / nr=0 / decimate=1 / interlaced=0 / bluray_compat=0 / constrained_intra=0 / bframes=14 / b_pyramid=2 / b_adapt=2 / b_bias=0 / direct=3 / weightb=1 / open_gop=0 / weightp=2 / keyint=240 / keyint_min=24 / scenecut=40 / intra_refresh=0 / rc_lookahead=60 / rc=2pass / mbtree=0 / bitrate=2732 / ratetol=1.0 / qcomp=0.60 / qpmin=0 / qpmax=69 / qpstep=4 / cplxblur=20.0 / qblur=0.5 / vbv_maxrate=62500 / vbv_bufsize=78125 / nal_hrd=none / filler=0 / ip_ratio=1.40 / pb_ratio=1.30 / aq=1:1.00
Language : English
Default : Yes
Forced : No
Color range : Limited
Color primaries : BT.709
Transfer characteristics : BT.709
Matrix coefficients : BT.709
Statistics Tags Issue : mkvmerge v9.0.1 ('Obstacles') 64bit 2016-04-14 10:34:04 / mkvmerge v9.0.1 ('Obstacles') 64bit 2016-04-14 10:34:04 / UTC
FromStats_BitRate : 2731967
FromStats_Duration : 01:25:43.597000000
FromStats_FrameCount : 123323
FromStats_StreamSize : 1756517289

Audio #1
ID : 2
Format : AC-3
Format/Info : Audio Coding 3
Mode extension : CM (complete main)
Format settings, Endianness : Big
Codec ID : A_AC3
Duration : 1h 25mn
Bit rate mode : Constant
Bit rate : 448 Kbps
Channel(s) : 6 channels
Channel positions : Front: L C R, Side: L R, LFE
Sampling rate : 48.0 KHz
Frame rate : 31.250 fps (1536 spf)
Compression mode : Lossy
Stream size : 275 MiB (12%)
Title : AC3 6 ch, 48 kHz ~448 kbps - AVO [Гланц]
Language : Russian
Default : Yes
Forced : No
Statistics Tags Issue : mkvmerge v9.0.1 ('Obstacles') 64bit 2016-04-14 10:34:04 / mkvmerge v9.0.1 ('Obstacles') 64bit 2016-04-14 10:34:04 / UTC
FromStats_BitRate : 448000
FromStats_Duration : 01:25:47.872000000
FromStats_FrameCount : 160871
FromStats_StreamSize : 288280832

Audio #2
ID : 3
Format : AC-3
Format/Info : Audio Coding 3
Mode extension : CM (complete main)
Format settings, Endianness : Big
Codec ID : A_AC3
Duration : 1h 25mn
Bit rate mode : Constant
Bit rate : 448 Kbps
Channel(s) : 6 channels
Channel positions : Front: L C R, Side: L R, LFE
Sampling rate : 48.0 KHz
Frame rate : 31.250 fps (1536 spf)
Compression mode : Lossy
Stream size : 275 MiB (12%)
Title : AC3 6 ch, 48 kHz ~448 kbps - Original
Language : English
Default : No
Forced : No
Statistics Tags Issue : mkvmerge v9.0.1 ('Obstacles') 64bit 2016-04-14 10:34:04 / mkvmerge v9.0.1 ('Obstacles') 64bit 2016-04-14 10:34:04 / UTC
FromStats_BitRate : 448000
FromStats_Duration : 01:25:45.856000000
FromStats_FrameCount : 160808
FromStats_StreamSize : 288167936

Text #1
ID : 4
Format : ASS
Codec ID : S_TEXT/ASS
Codec ID/Info : Advanced Sub Station Alpha
Compression mode : Lossless
Language : Russian
Default : No
Forced : No
Statistics Tags Issue : mkvmerge v9.0.1 ('Obstacles') 64bit 2016-04-14 10:34:04 / mkvmerge v9.0.1 ('Obstacles') 64bit 2016-04-14 10:34:04 / UTC
FromStats_BitRate : 177
FromStats_Duration : 01:22:57.357000000
FromStats_FrameCount : 1178
FromStats_StreamSize : 110276

Text #2
ID : 5
Format : ASS
Codec ID : S_TEXT/ASS
Codec ID/Info : Advanced Sub Station Alpha
Compression mode : Lossless
Language : English
Default : No
Forced : No
Statistics Tags Issue : mkvmerge v9.0.1 ('Obstacles') 64bit 2016-04-14 10:34:04 / mkvmerge v9.0.1 ('Obstacles') 64bit 2016-04-14 10:34:04 / UTC
FromStats_BitRate : 137
FromStats_Duration : 01:25:27.021000000
FromStats_FrameCount : 1799
FromStats_StreamSize : 88319

Text #3
ID : 6
Format : ASS
Codec ID : S_TEXT/ASS
Codec ID/Info : Advanced Sub Station Alpha
Compression mode : Lossless
Language : Russian
Default : No
Forced : No
Statistics Tags Issue : mkvmerge v9.0.1 ('Obstacles') 64bit 2016-04-14 10:34:04 / mkvmerge v9.0.1 ('Obstacles') 64bit 2016-04-14 10:34:04 / UTC
FromStats_BitRate : 190
FromStats_Duration : 01:25:29.420000000
FromStats_FrameCount : 1797
FromStats_StreamSize : 121830



Скачать Укуренные.Up.in.Smoke.(Лу.Адлер.Томми.Чонг).[1978.комедия.музыка.HDRip-AVC].[AVO]+[Оригинал]+[Sub]x2.torrent без регистрации
Золото ЗОЛОТАЯ РАЗДАЧА! СКАЧАННОЕ НЕ ЗАСЧИТЫВАЕТСЯ! Золото
Дата: Зарегистрирован   [ Тип: внутренний ] Как тут cкачать?
MAGNET ссылка
MAGNET ссылка


Скачать .torrent

12 KB

Статус: проверено DHT
Скачан: торрент - 47 раз, раздача полностью - 10 раз
Размер: 2,17 GB
Оценка:  - (Голосов: 0)
Поблагодарили: 2
Поделиться ссылкой на эту раздачу с друзьями:
В контактеFacebookОдноклассникиTwitterLivejournalМой МирLiveinternet
 

 
Показать сообщения:    


Вы не можете начинать темы
Вы не можете отвечать на сообщения
Вы не можете редактировать свои сообщения
Вы не можете удалять свои сообщения
Вы не можете голосовать в опросах
Вы не можете прикреплять файлы к сообщениям
Вы можете скачивать файлы