Loading...
Error

Скачать Отец Браун / Father Brown (S04x01-10) (Пол Гибсон и др.) [2016, детектив, драма, HDTVRip] [720p] [VO (DexterTV)] торрент без регистрации

 
Статистика раздачи
Размер:  7,49 GB   |    Скачан:  43 раза
Сидов:  1  [  0 KB/s  ]  
 
Автор Сообщение

МихаНЕзатор

[] 

Информация о фильме
Название: Отец Браун
Оригинальное название: Father Brown
Год выхода: 2016
Жанр: детектив, драма
Режиссер: Пол Гибсон, Мэтт Картер, Йен Барбер

В ролях: Марк Уильямс, Нэнси Кэролл, Сорча Кьюсак, Хьюго Спир, Алекс Прайс, Том Чамберс, Джон Лайт, Джон Бертон, Кит Осборн, Джеймс Расталл, Джастин Эдвардс, Дэвид Колдер, Кэти Льюн

О фильме: В английском священнике есть большая часть тех качеств, которые были присущи Шерлоку Холмсу. Он умел обращать внимание на незаметные детали, в разговоре больше внимания старался уделять мимике собеседника — ведь жесты человека, как теперь считают ученые, могут сказать больше, чем слова. Глубокий анализ и умение мыслить логически делают отца Брауна, внешне скромного и неприметного, суровым обличителем для преступников.



Страна: Великобритания
Студия: BBC Productions, BBC Drama Productions, BBC Worldwide
Продолжительность: 10 х ~ 00:45:00
Перевод:
Любительский одноголосый | DexterTV
Любительский двухголосый (4 серия) | DexterTV

Файл
Кодек: x264
Качество: HDTVRip 720p
Видео: MPEG-4 AVC, ~ 2200 Кбит/с, 1280x720, 25 кадр/с
Звук: MP3, 2 ch, 192 Кбит/с

АНОНСЫ ПОПУЛЯРНЫХ РАЗДАЧ

01. Маска Демона
02. Дочь пивовара
03. Смерть палача
04. Безумец империи
05. Дочь Автолика
06. Жезл Асклепия
07. Пропавший
08. Воскресший
09. Грехи отца
10. Гнев Барона Субботы
Общее
Уникальный идентификатор : 246094815990604931830450858984752483486 (0xB9242335003137B7B56C36EBC00F0C9E)
Полное имя : Father.Brown.S04E05.HDTV.720p.mkv
Формат : Matroska
Версия формата : Version 4 / Version 2
Размер файла : 755 Мбайт
Продолжительность : 44 м.
Общий поток : 2373 Кбит/сек
Дата кодирования : UTC 2016-03-11 06:38:56
Программа кодирования : mkvmerge v7.7.0 ('Six Voices') 32bit built on Feb 28 2015 23:23:00
Библиотека кодирования : libebml v1.3.1 + libmatroska v1.4.2
DURATION : 00:44:28.920000000
NUMBER_OF_FRAMES : 111205
NUMBER_OF_BYTES : 64054080
_STATISTICS_WRITING_APP : mkvmerge v7.7.0 ('Six Voices') 32bit built on Feb 28 2015 23:23:00
_STATISTICS_WRITING_DATE_UTC : 2016-03-11 06:38:56
_STATISTICS_TAGS : BPS DURATION NUMBER_OF_FRAMES NUMBER_OF_BYTES

Видео
Идентификатор : 1
Формат : AVC
Формат/Информация : Advanced Video Codec
Профиль формата : High@L4.1
Параметр CABAC формата : Да
Параметр ReFrames формата : 5 кадров
Идентификатор кодека : V_MPEG4/ISO/AVC
Продолжительность : 44 м.
Битрейт : 2134 Кбит/сек
Ширина : 1280 пикселей
Высота : 720 пикселей
Соотношение сторон : 16:9
Режим частоты кадров : Постоянный
Частота кадров : 25,000 кадров/сек
Цветовое пространство : YUV
Субдискретизация насыщенности : 4:2:0
Битовая глубина : 8 бит
Тип развёртки : Прогрессивная
Бит/(Пиксели*Кадры) : 0.093
Размер потока : 679 Мбайт (90%)
Библиотека кодирования : x264 core 148 r2638 7599210
Настройки программы : cabac=1 / ref=5 / deblock=1:-1:-1 / analyse=0x3:0x113 / me=umh / subme=8 / psy=1 / psy_rd=1.00:0.00 / mixed_ref=1 / me_range=16 / chroma_me=1 / trellis=1 / 8x8dct=1 / cqm=0 / deadzone=21,11 / fast_pskip=1 / chroma_qp_offset=-2 / threads=12 / lookahead_threads=2 / sliced_threads=0 / nr=0 / decimate=1 / interlaced=0 / bluray_compat=0 / constrained_intra=0 / bframes=3 / b_pyramid=2 / b_adapt=2 / b_bias=0 / direct=3 / weightb=1 / open_gop=0 / weightp=2 / keyint=250 / keyint_min=25 / scenecut=40 / intra_refresh=0 / rc_lookahead=50 / rc=crf / mbtree=1 / crf=18.0 / qcomp=0.60 / qpmin=0 / qpmax=69 / qpstep=4 / ip_ratio=1.40 / aq=1:1.00
Язык : English
Default : Да
Forced : Нет
Цветовой диапазон : Limited
Коэффициенты матрицы : BT.709
DURATION : 00:44:28.840000000
NUMBER_OF_FRAMES : 66721
NUMBER_OF_BYTES : 727140753
_STATISTICS_WRITING_APP : mkvmerge v7.7.0 ('Six Voices') 32bit built on Feb 28 2015 23:23:00
_STATISTICS_WRITING_DATE_UTC : 2016-03-11 06:38:56
_STATISTICS_TAGS : BPS DURATION NUMBER_OF_FRAMES NUMBER_OF_BYTES

Аудио
Идентификатор : 2
Формат : MPEG Audio
Версия формата : Version 1
Профиль формата : Layer 3
Режим : Joint stereo
Идентификатор кодека : A_MPEG/L3
Идентификатор кодека/Подсказка : MP3
Продолжительность : 44 м.
Вид битрейта : Постоянный
Битрейт : 192 Кбит/сек
Каналы : 2 канала
Частота : 48,0 КГц
Метод сжатия : С потерями
Размер потока : 61,1 Мбайт (8%)
Default : Да
Forced : Нет



Скачать Отец.Браун.Father.Brown.(S04x01-10).(Пол.Гибсон.и.др.).[2016.детектив.драма.HDTVRip].[720p].[VO.(DexterTV)].torrent без регистрации
Золото ЗОЛОТАЯ РАЗДАЧА! СКАЧАННОЕ НЕ ЗАСЧИТЫВАЕТСЯ! Золото
Дата: Зарегистрирован   [ Тип: внутренний ] Как тут cкачать?
MAGNET ссылка
MAGNET ссылка


Скачать .torrent

39 KB

Статус: проверено DHT
Скачан: торрент - 43 раз, раздача полностью - 4 раз
Размер: 7,49 GB
Оценка:  - (Голосов: 0)
Поблагодарили: 0
Поделиться ссылкой на эту раздачу с друзьями:
В контактеFacebookОдноклассникиTwitterLivejournalМой МирLiveinternet
 

 
Показать сообщения:    


Вы не можете начинать темы
Вы не можете отвечать на сообщения
Вы не можете редактировать свои сообщения
Вы не можете удалять свои сообщения
Вы не можете голосовать в опросах
Вы не можете прикреплять файлы к сообщениям
Вы можете скачивать файлы